Влюблен по собственному желанию (Сергей Микаэлян) [1982, СССР, мелодрама, комедия, WEB-DL 720p]

 
Автор Сообщение

TorrentFilm ®

Пол:

Стаж: 2 года

Сообщений: 7741



Награды: Нет

Торрент-статистика

Создавать темы 07-Фев-2016 00:08

[Цитировать]

Влюблен по собственному желанию
Страна: СССР
Студия: Ленфильм
Жанр: мелодрама, комедия
Год выпуска: 1982
Продолжительность: 1:23:43
Перевод: Не требуется
Cубтитры: нет
Оригинальная аудиодорожка: русский
Режиссер: Сергей Микаэлян
В ролях: Олег Янковский, Евгения Глушенко, Всеволод Шиловский, Ирина Резникова, Юрий Дубровин, Владимир Белоусов, Юрий Копыч, Кира Крейлис-Петрова, Иван Уфимцев, Светлана Шершнева
Описание: Бывший спортсмен, а теперь опустившийся от беспросветных кутежей бездельник звонит случайной знакомой в надежде на то, что она поможет ему разрешить очередную проблему с «трешкой». Но знакомая оказалась весьма серьезной библиотекаршей и всегда готова помочь тем, кто в ней нуждается.
Зная о своей непривлекательности, она также знает и то, что если поставить цель, то можно всего добиться. С помощью аутотренинга, например, можно даже влюбиться друг в друга. Главное, чтобы этот «другой» хотя бы был…
Доп. информация: К iTunes-релизу добавлены многоканальная и моно дорожки с DVD от «Крупного плана», с этого же DVD подогнана навигация по главам, подписаны названия сцен.

Скачать сэмпл
Тип релиза: WEB-DL 720p
Контейнер: MKV
Видео: 960x718@1280x718 at 25 fps, MPEG-4 AVC, 4022 kb/s
Аудио: AC3, 48000 Hz, 5.1, 448 kb/s
Аудио 2: AC3, 48000 Hz, mono, 224 kb/s
Аудио 3: AAC, 48000 Hz, stereo, 160 kb/s

MediaInfo

Общее
Уникальный идентификатор : 195150903075491194504082068279516652182 (0x92D0B260E09556B19872463E1D0AE296)
Полное имя : D:\Sborka\Vlyublyon.po.sobstvennomu.zhelaniyu.1982.720p.WEB-DL.3xRus.Euroxit.mkv
Формат : Matroska
Версия формата : Version 4 / Version 2
Размер файла : 2,84 Гбайт
Продолжительность : 1 ч. 23 м.
Общий поток : 4859 Кбит/сек
Дата кодирования : UTC 2016-02-05 18:17:15
Программа кодирования : mkvmerge v8.6.1 ('Flying') 64bit
Библиотека кодирования : libebml v1.3.3 + libmatroska v1.4.4
Видео
Идентификатор : 1
Формат : AVC
Формат/Информация : Advanced Video Codec
Профиль формата : Main@L3.1
Параметр CABAC формата : Нет
Параметр ReFrames формата : 2 кадра
Идентификатор кодека : V_MPEG4/ISO/AVC
Продолжительность : 1 ч. 23 м.
Битрейт : 4022 Кбит/сек
Ширина : 960 пикселей
Высота : 718 пикселей
Соотношение сторон : 16:9
Режим частоты кадров : Постоянный
Частота кадров : 25,000 кадров/сек
Цветовое пространство : YUV
Субдискретизация насыщенности : 4:2:0
Битовая глубина : 8 бит
Тип развёртки : Прогрессивная
Бит/(Пиксели*Кадры) : 0.233
Размер потока : 2,35 Гбайт (83%)
Язык : Russian
Default : Да
Forced : Нет
Цветовой диапазон : Limited
Основные цвета : BT.709
Характеристики трансфера : BT.709
Коэффициенты матрицы : BT.709
Аудио #1
Идентификатор : 2
Формат : AC-3
Формат/Информация : Audio Coding 3
Расширение режима : CM (complete main)
Параметр Endianness формата : Big
Идентификатор кодека : A_AC3
Продолжительность : 1 ч. 23 м.
Вид битрейта : Постоянный
Битрейт : 448 Кбит/сек
Каналы : 6 каналов
Расположение каналов : Front: L C R, Side: L R, LFE
Частота : 48,0 КГц
Частота кадров : 31,250 кадров/сек (1536 spf)
Метод сжатия : С потерями
Размер потока : 268 Мбайт (9%)
Язык : Russian
Default : Да
Forced : Нет
Аудио #2
Идентификатор : 3
Формат : AC-3
Формат/Информация : Audio Coding 3
Расширение режима : CM (complete main)
Параметр Endianness формата : Big
Идентификатор кодека : A_AC3
Продолжительность : 1 ч. 23 м.
Вид битрейта : Постоянный
Битрейт : 224 Кбит/сек
Каналы : 1 канал
Расположение каналов : Front: C
Частота : 48,0 КГц
Частота кадров : 31,250 кадров/сек (1536 spf)
Метод сжатия : С потерями
Размер потока : 134 Мбайт (5%)
Язык : Russian
Default : Нет
Forced : Нет
Аудио #3
Идентификатор : 4
Формат : AAC
Формат/Информация : Advanced Audio Codec
Профиль формата : LC
Идентификатор кодека : A_AAC
Продолжительность : 1 ч. 23 м.
Битрейт : 162 Кбит/сек
Каналы : 2 канала
Расположение каналов : Front: L R
Частота : 48,0 КГц
Частота кадров : 46,875 кадров/сек (1024 spf)
Метод сжатия : С потерями
Размер потока : 97,1 Мбайт (3%)
Заголовок : AAC 2.0 @ 160 kbps
Язык : Russian
Default : Нет
Forced : Нет
Меню
00:00:00.000 : ru:Титры. Случайное знакомство
00:08:30.000 : ru:Верунчик
00:15:31.160 : ru:Начало эксперимента
00:23:18.000 : ru:Теория и жизнь
00:30:51.040 : ru:Поездка за город
00:37:07.320 : ru:Поцелуй
00:40:53.560 : ru:Ссоры
00:51:58.360 : ru:Деревенский роман
00:57:16.640 : ru:Мучения
01:02:28.360 : ru:Заманчивое предложение
01:07:02.960 : ru:Решительные поступки
01:15:41.400 : ru:Что такое счастье?

Скриншоты

[Профиль] [ЛС]
Показать сообщения:    

Текущее время: Сегодня 14:43

Часовой пояс: GMT



Вы не можете начинать темы
Вы не можете отвечать на сообщения
Вы не можете редактировать свои сообщения
Вы не можете удалять свои сообщения
Вы не можете голосовать в опросах
Вы не можете прикреплять файлы к сообщениям
Вы не можете скачивать файлы