Влюбленное облако (Анатолий Каранович, Роман Качанов) [1959, СССР, Комбинированный мультфильм, DVDRip]

 
Автор Сообщение

TorrentFilm ®

Пол:

Стаж: 2 года

Сообщений: 7741



Награды: Нет

Торрент-статистика

Создавать темы 09-Ноя-2015 00:07

[Цитировать]

Влюбленное облако
Страна: СССР
Жанр: Комбинированный мультфильм
Продолжительность: 00:15:56
Год выпуска: 1959
Русские субтитры: нет
Режиссёр: Анатолий Каранович, Роман Качанов
Описание: Экранизация сказки Назыма Хикмета о прекрасной Айше (хозяйке оазиса) и влюбившемся в неё облаке. Злой повелитель пустыни решает погубить Айше и её оазис — его заметают пески пустыни, но облако ценой своей жизни (оно проливается дождём над оазисом) спасает свою возлюбленную и её сад.
Доп. информация: «Союзмультфильм»
• Автор сценария — Назым Хикмет
• Оператор — Михаил Каменецкий
• Художник-постановщик — Владимир Соболёв
• Композитор — Андрей Бабаев
• Звукооператор — Борис Фильчиков
• Художник — Валентина Василенко
• Редактор — В. Тулякова
Релиз группы:
Качество: DVDRip
Формат: AVI
Видео: 704x528 (1.33:1), 25 fps, XviD MPEG-4 ~2099 kbps avg, 0.23 bit/pixel
Аудио: 48 kHz, AC3 Dolby Digital, 2/0 (L,R) ch, ~192.00 kbps avg
Субтитры: нет

Подробные технические данные

Format : AVIFormat/Info : Audio Video InterleaveFile size : 262 MiBDuration : 15mn 56sOverall bit rate : 2 302 KbpsWriting application : VirtualDubModRus 1.5.10.2 (build 2542/release)Copyright : Rutracker.orgComment : DVDRip by dvdss
VideoID : 0Format : MPEG-4 VisualFormat profile : Advanced Simple@L5Format settings, BVOP : 2Format settings, QPel : NoFormat settings, GMC : No warppointsFormat settings, Matrix : CustomCodec ID : XVIDCodec ID/Hint : XviDDuration : 15mn 56sBit rate : 2 100 KbpsWidth : 704 pixelsHeight : 528 pixelsDisplay aspect ratio : 5:4Original display aspect ratio : 4:3Frame rate : 25.000 fpsColor space : YUVChroma subsampling : 4:2:0Bit depth : 8 bitsScan type : ProgressiveCompression mode : LossyBits/(Pixel*Frame) : 0.226Stream size : 239 MiB (91%)Writing library : XviD 65
AudioID : 1Format : AC-3Format/Info : Audio Coding 3Mode extension : CM (complete main)Format settings, Endianness : BigCodec ID : 2000Duration : 15mn 55sBit rate mode : ConstantBit rate : 192 KbpsChannel(s) : 2 channelsChannel positions : Front: L RSampling rate : 48.0 KHzBit depth : 16 bitsCompression mode : LossyStream size : 21.9 MiB (8%)Alignment : Aligned on interleavesInterleave, duration : 40 ms (1.00 video frame)Interleave, preload duration : 512 ms

интересные факты

• Фильм выполнен в редчайшей смешанной мультипликационной манере. В нём мастерски сочетаются техники объёмной «перекладки», простой «перекладки», а также кукольной и рисованной мультипликаций.
• Создание этого короткого мультипликационного фильма пришлось на времена Хрущёвской «оттепели». Реформаторская, по тому времени, эстетика этого фильма стала для многих зарубежных зрителей одним из олицетворений происходящих в СССР перемен.
• Сценарий написан легендарным турецким поэтом-коммунистом Назымом Хикметом. В то время он находился в СССР в иммиграции.
• Первый из советских мультфильмов отмеченный престижным призом Международной федерации кинопрессы ФИПРЕССИ

награды

• 1960 — III МКФ мультипликационного кино в Аннеси — Специальная премия жюри «За поэтичность и народность в искусстве»[1].
• 1960 — II МКФ кукольных и марионеточных фильмов в Бухаресте — Серебряная медаль.
• 1960 — VII МКФ к/м фильмов в Оберхаузене — Приз ФИПРЕССИ.

Скриншоты

[Профиль] [ЛС]
Показать сообщения:    

Текущее время: Сегодня 04:12

Часовой пояс: GMT



Вы не можете начинать темы
Вы не можете отвечать на сообщения
Вы не можете редактировать свои сообщения
Вы не можете удалять свои сообщения
Вы не можете голосовать в опросах
Вы не можете прикреплять файлы к сообщениям
Вы не можете скачивать файлы