Влюбить и обезвредить (2015) WEB-DL 1080p

 
Автор Сообщение

BOSS ®

Пол:

Стаж: 2 года 1 месяц

Сообщений: 3719

Откуда: ODESSA



Награды: 20 (Подробнее)

Mega Releaser 1 (Количество: 1) Top Seeder 3 (Количество: 1) Top Keeper 4 (Количество: 1)
Торрент-статистика

Создавать темы 17-Фев-2016 17:15

[Цитировать]

Информация о фильме
Название: Влюбить и обезвредить
Год выхода: 2015
Жанр: Комедия
Режиссер: Анарио Мамедов
В ролях: Анастасия Панина, Роман Полянский, Вадим Андреев, Максим Битюков, Анна Пескова, Антон Шурцов, Андрей Бутин, Вячеслав Хархота, Юлия Подозерова, Юлия Жигалина
О фильме:
Отчаявшись устроить личное счастье сотрудник полиции Анна в шутку составляет фоторобот мужчины своей мечты. По ошибке изображение попадает в базу розыска преступников и теперь все уверены, что именно так выглядит загадочный вор, которого боятся во всех ювелирных города. Безобидный программист Саша, поразительно похожий на фантазию Анны, приходит в магазин за обручальными кольцами для своей свадьбы и тут же оказывается в наручниках. В полиции быстро выясняют правду, но решают до поры до времени скрыть ее от Саши. Анне поручают присматривать за парнем, чтобы «на живца» поймать не только настоящего вора, но и опасных бандитов, гоняющихся за ним. Вот только хладнокровно следовать профессиональному долгу, сутками находясь рядом с самым желанным мужчиной, оказывается совсем непросто.

Страна: Россия
Студия: Маурис Филм
Продолжительность: 01:49:18
Перевод: не требуется
Файл
Кодек: H.264
Качество: WEB-DL 1080p
Видео: AVC, 1920x1014 (1.893), 25 fps ~ 4856 Kbps
Звук: AC3, 48 KHz 2 ch ~ 192 Kb/s
Субтитры: отсутствуют

MI:

Общее
Уникальный идентификатор : 253379273612259058862743273893729867621 (0xBE9F12B2560DA6498004CADDEC8F1765)
Полное имя : Q:TorFFLL_N_LV_NTRLZ_2015_WEB-DL_1080P -BLUEBIRD.mkv
Формат : Matroska
Версия формата : Version 4 / Version 2
Размер файла : 3,93 Гбайт
Продолжительность : 1 ч. 49 м.
Общий поток : 5151 Кбит/сек
Название фильма : Влюбить и обезвредить (2015) [BLUEBIRD]
Дата кодирования : UTC 2016-02-15 18:46:01
Программа кодирования : mkvmerge v7.1.0 ('Good Love') 64bit built on Jul 27 2014 13:06:55
Библиотека кодирования : libebml v1.3.0 + libmatroska v1.4.1
DURATION : 01:49:18.784000000
NUMBER_OF_FRAMES : 204962
NUMBER_OF_BYTES : 157410816
_STATISTICS_WRITING_APP : mkvmerge v7.1.0 ('Good Love') 64bit built on Jul 27 2014 13:06:55
_STATISTICS_WRITING_DATE_UTC : 2016-02-15 18:46:01
_STATISTICS_TAGS : BPS DURATION NUMBER_OF_FRAMES NUMBER_OF_BYTES
Видео
Идентификатор : 1
Формат : AVC
Формат/Информация : Advanced Video Codec
Профиль формата : High@L4.0
Параметр CABAC формата : Да
Параметр ReFrames формата : 4 кадра
Идентификатор кодека : V_MPEG4/ISO/AVC
Продолжительность : 1 ч. 49 м.
Битрейт : 4856 Кбит/сек
Ширина : 1920 пикселей
Высота : 1014 пикселей
Соотношение сторон : 1,893
Частота кадров : 25,000 кадров/сек
Цветовое пространство : YUV
Субдискретизация насыщенности : 4:2:0
Битовая глубина : 8 бит
Тип развёртки : Прогрессивная
Бит/(Пиксели*Кадры) : 0.100
Размер потока : 3,71 Гбайт (94%)
Заголовок : FLL_N_LV_NTRLZ_2015_WEB-DL_1080P -BLUEBIRD
Язык : Russian
Default : Да
Forced : Нет
Основные цвета : BT.709-5, BT.1361, IEC 61966-2-4, SMPTE RP177
Характеристики трансфера : BT.709-5, BT.1361
Коэффициенты матрицы : BT.709-5, BT.1361, IEC 61966-2-4 709, SMPTE RP177
Аудио
Идентификатор : 2
Формат : AC-3
Формат/Информация : Audio Coding 3
Расширение режима : CM (complete main)
Идентификатор кодека : A_AC3
Продолжительность : 1 ч. 49 м.
Вид битрейта : Постоянный
Битрейт : 192 Кбит/сек
Каналы : 2 канала
Расположение каналов : Front: L R
Частота : 48,0 КГц
Битовая глубина : 16 бит
Метод сжатия : С потерями
Размер потока : 150 Мбайт (4%)
Заголовок : iTUNES
Язык : Russian
Default : Да
Forced : Нет
Меню
00:00:00.000 : en:Chapter 01
00:05:02.000 : en:Chapter 02
00:10:15.000 : en:Chapter 03
00:15:55.000 : en:Chapter 04
00:22:11.000 : en:Chapter 05
00:27:52.000 : en:Chapter 06
00:32:35.000 : en:Chapter 07
00:38:04.000 : en:Chapter 08
00:42:13.000 : en:Chapter 09
00:49:27.000 : en:Chapter 10
00:55:07.000 : en:Chapter 11
01:02:06.000 : en:Chapter 12
01:09:29.000 : en:Chapter 13
01:14:05.000 : en:Chapter 14
01:19:56.000 : en:Chapter 15
01:25:16.000 : en:Chapter 16
01:30:04.000 : en:Chapter 17
01:37:01.000 : en:Chapter 18
01:44:08.000 : en:Chapter 19

Скриншоты

Релиз от:
[Профиль] [ЛС]
Показать сообщения:    

Текущее время: Сегодня 00:45

Часовой пояс: GMT



Вы не можете начинать темы
Вы не можете отвечать на сообщения
Вы не можете редактировать свои сообщения
Вы не можете удалять свои сообщения
Вы не можете голосовать в опросах
Вы не можете прикреплять файлы к сообщениям
Вы не можете скачивать файлы