Влюбить и обезвредить (2015) WEB-DLRip-AVC | iTunes Russia

 
Автор Сообщение

достали все ®

Пол:

Стаж: 1 год 8 месяцев

Сообщений: 6565



Награды: 12 (Подробнее)

Mega Releaser 3 (Количество: 1) Mega Seeder 2 (Количество: 1) Mega Seeder 5 (Количество: 1)
Торрент-статистика

Создавать темы 17-Фев-2016 14:23

[Цитировать]

Информация о фильме
Оригинальное название: Влюбить и обезвредить (Любовь в розыске)
Год выпуска: 2015
Жанр: Комедия
Выпущено: Россия, Маурис Филм
Режиссер: Анарио Мамедов
В ролях: Анастасия Панина, Роман Полянский, Максим Битюков, Анна Пескова, Вадим Андреев, Андрей Бутин, Юлия Жигалина, Вячеслав Хархота, Юлия Подозерова
О фильме: Отчаявшись устроить личное счастье сотрудник полиции Анна в шутку составляет фоторобот мужчины своей мечты. По ошибке изображение попадает в базу розыска преступников и теперь все уверены, что именно так выглядит загадочный вор, которого боятся во всех ювелирных города. Безобидный программист Саша, поразительно похожий на фантазию Анны, приходит в магазин за обручальными кольцами для своей свадьбы и тут же оказывается в наручниках. В полиции быстро выясняют правду, но решают до поры до времени скрыть ее от Саши. Анне поручают присматривать за парнем, чтобы «на живца» поймать не только настоящего вора, но и опасных бандитов, гоняющихся за ним. Вот только хладнокровно следовать профессиональному долгу, сутками находясь рядом с самым желанным мужчиной, оказывается совсем непросто.

Файл
Качество: WEB-DLRip (AVC)
Видео: MPEG-4 AVC, 2650 Кбит/с, 1024x540, 25 кадр/с
Аудио: AC3, 2 ch, 192 Кбит/с
Размер: 2.17 ГБ
Продолжительность: 01:49:19
Язык: Русский
Озвучивание - iTunes Russia
Сохранены оригинальные чаптеры как на исходном WEB-DL.

x264

x264 [info]: frame I:1687 Avg QP:15.38 size: 67965
x264 [info]: frame P:61644 Avg QP:18.52 size: 23154
x264 [info]: frame B:100638 Avg QP:19.93 size: 6264
x264 [info]: consecutive B-frames: 9.4% 26.2% 16.4% 24.6% 19.8% 3.4% 0.1% 0.0% 0.0% 0.2%
x264 [info]: mb I I16..4: 9.0% 70.1% 20.9%
x264 [info]: mb P I16..4: 0.9% 10.3% 1.1% P16..4: 31.9% 36.4% 12.8% 1.9% 0.2% skip: 4.5%
x264 [info]: mb B I16..4: 0.1% 0.7% 0.1% B16..8: 30.0% 17.9% 3.2% direct: 5.3% skip:42.9% L0:35.6% L1:46.8% BI:17.6%
x264 [info]: 8x8 transform intra:81.5% inter:52.6%
x264 [info]: direct mvs spatial:99.1% temporal:0.9%
x264 [info]: coded y,uvDC,uvAC intra: 89.3% 88.3% 68.9% inter: 23.9% 20.8% 12.4%
x264 [info]: i16 v,h,dc,p: 26% 10% 6% 58%
x264 [info]: i8 v,h,dc,ddl,ddr,vr,hd,vl,hu: 13% 9% 9% 8% 11% 13% 11% 13% 13%
x264 [info]: i4 v,h,dc,ddl,ddr,vr,hd,vl,hu: 18% 10% 5% 7% 14% 14% 12% 10% 10%
x264 [info]: i8c dc,h,v,p: 41% 22% 20% 17%
x264 [info]: Weighted P-Frames: Y:2.4% UV:1.0%
x264 [info]: ref P L0: 59.4% 10.1% 13.8% 5.4% 3.7% 2.6% 1.9% 1.1% 0.9% 0.7% 0.2% 0.0%
x264 [info]: ref B L0: 82.8% 10.4% 3.0% 1.4% 0.9% 0.6% 0.5% 0.2% 0.1%
x264 [info]: ref B L1: 95.6% 4.4%
x264 [info]: kb/s:2649.76

Инфо-файл

Общее
Уникальный идентификатор : 207663676228355817552624599735177646774 (0x9C3A91B9C6C0FA1886FD952EAD5112B6)
Полное имя : D:ЗагрузкиVljubit.I.Obezvredit.2015.x264.WEB-DLRip.(AVC).ExKinoRay.mkv
Формат : Matroska
Версия формата : Version 2
Размер файла : 2,17 Гбайт
Продолжительность : 1 ч. 49 м.
Общий поток : 2844 Кбит/сек
Название фильма : Влюбить и обезвредить.2015.Rip by: ollan
Дата кодирования : UTC 2016-02-17 07:18:47
Программа кодирования : mkvmerge v5.6.0 ('Kenya Kane') built on May 27 2012 16:44:04
Библиотека кодирования : libebml v1.2.3 + libmatroska v1.3.0
Видео
Идентификатор : 1
Формат : AVC
Формат/Информация : Advanced Video Codec
Профиль формата : High@L4.1
Параметр CABAC формата : Да
Параметр ReFrames формата : 10 кадров
Идентификатор кодека : V_MPEG4/ISO/AVC
Продолжительность : 1 ч. 49 м.
Битрейт : 2650 Кбит/сек
Ширина : 1024 пикселя
Высота : 540 пикселей
Соотношение сторон : 1,896
Режим частоты кадров : Постоянный
Частота кадров : 25,000 кадров/сек
Цветовое пространство : YUV
Субдискретизация насыщенности : 4:2:0
Битовая глубина : 8 бит
Тип развёртки : Прогрессивная
Бит/(Пиксели*Кадры) : 0.192
Размер потока : 1,98 Гбайт (91%)
Библиотека кодирования : x264 core 146 r2538 121396c
Настройки программы : cabac=1 / ref=10 / deblock=1:-3:-3 / analyse=0x3:0x133 / me=umh / subme=11 / psy=1 / psy_rd=1.00:0.05 / mixed_ref=1 / me_range=48 / chroma_me=1 / trellis=2 / 8x8dct=1 / cqm=0 / deadzone=21,11 / fast_pskip=0 / chroma_qp_offset=-3 / threads=12 / lookahead_threads=1 / sliced_threads=0 / nr=0 / decimate=0 / interlaced=0 / bluray_compat=0 / constrained_intra=0 / bframes=9 / b_pyramid=2 / b_adapt=1 / b_bias=0 / direct=3 / weightb=1 / open_gop=0 / weightp=2 / keyint=250 / keyint_min=25 / scenecut=40 / intra_refresh=0 / rc_lookahead=40 / rc=2pass / mbtree=0 / bitrate=2650 / ratetol=1.0 / qcomp=0.60 / qpmin=0 / qpmax=69 / qpstep=4 / cplxblur=20.0 / qblur=0.5 / vbv_maxrate=50000 / vbv_bufsize=62500 / nal_hrd=none / filler=0 / ip_ratio=1.40 / pb_ratio=1.30 / aq=1:1.00
Язык : Russian
Default : Да
Forced : Нет
Аудио
Идентификатор : 2
Формат : AC-3
Формат/Информация : Audio Coding 3
Расширение режима : CM (complete main)
Параметр Endianness формата : Big
Идентификатор кодека : A_AC3
Продолжительность : 1 ч. 49 м.
Вид битрейта : Постоянный
Битрейт : 192 Кбит/сек
Каналы : 2 канала
Расположение каналов : Front: L R
Частота : 48,0 КГц
Битовая глубина : 16 бит
Метод сжатия : С потерями
Размер потока : 150 Мбайт (7%)
Заголовок : iTunes Russia
Язык : Russian
Default : Да
Forced : Нет
Меню
00:00:00.000 : ru:Chapter 01
00:05:02.000 : ru:Chapter 02
00:10:15.000 : ru:Chapter 03
00:15:55.000 : ru:Chapter 04
00:22:11.000 : ru:Chapter 05
00:27:52.000 : ru:Chapter 06
00:32:35.000 : ru:Chapter 07
00:38:04.000 : ru:Chapter 08
00:42:13.000 : ru:Chapter 09
00:49:27.000 : ru:Chapter 10
00:55:07.000 : ru:Chapter 11
01:02:06.000 : ru:Chapter 12
01:09:29.000 : ru:Chapter 13
01:14:05.000 : ru:Chapter 14
01:19:56.000 : ru:Chapter 15
01:25:16.000 : ru:Chapter 16
01:30:04.000 : ru:Chapter 17
01:37:01.000 : ru:Chapter 18
01:44:08.000 : ru:Chapter 19

Скриншоты



Rip by:
[Профиль] [ЛС]
Показать сообщения:    

Текущее время: Сегодня 16:17

Часовой пояс: GMT



Вы не можете начинать темы
Вы не можете отвечать на сообщения
Вы не можете редактировать свои сообщения
Вы не можете удалять свои сообщения
Вы не можете голосовать в опросах
Вы не можете прикреплять файлы к сообщениям
Вы не можете скачивать файлы