Властелин легенд / DreamKeeper (2003) BDRip 720p | P

 
Автор Сообщение

Russian Mafia ®

Пол:

Стаж: 1 год 8 месяцев

Сообщений: 4257



Награды: 10 (Подробнее)

Top Releaser 3 (Количество: 1) Mega Seeder 4 (Количество: 1) Mega Seeder 5 (Количество: 1)
Торрент-статистика

Создавать темы 14-Авг-2016 15:05

[Цитировать]

Информация о фильме
Название: Властелин легенд
Оригинальное название: DreamKeeper
Год выхода: 2003
Жанр: фэнтези, драма
Режиссер: Стив Бэррон
В ролях: Аугуст Шелленберг, Эдди Спирс, Гэри Фармер, Джон Труделл, Чэск Спенсер, Тенейл Уискиджек, Алекс Райс, Майкл Грейес, Танту Кардинал, Дакота Хаус
О фильме:
Почти столетний Пит хранит историю своего индейского племени. Но его 17 -летний внук Шейн, член уличной банды «Псы-воины», далек от всего этого. Лишь задолжав своим товарищам по банде крупную сумму денег, он согласился отвезти дедушку на ежегодный совет племен в штат Нью-Мексико, за много сотен миль от родной Южной Дакоты. По пути Пит рассказывает ему легенды племени, которые Шейн должен обязательно запомнить и передать своим потомкам. Эта поездка навсегда изменит его жизнь…

Страна: США, Канада, Германия
Студия: Hallmark Entertainment, RTL Productions, Sextant Entertainment Group Inc.
Продолжительность: 2 x ~ 01:31:00
Перевод: Профессиональный (многоголосый, закадровый) Екатеринбург Арт
Файл
Формат: Matroska
Видео: 1280х720 at 23.976 fps, x264@L4.1, ~4442 kbps avg
Аудио#1: Russian: 48 kHz, AC3 Dolby Digital, 2/0 (L,R) ch, ~192 kbps avg |Многоголосый закадровый, Екатеринбург Арт|
Аудио#2: English: 48 kHz, AC3 Dolby Digital, 3/2 (L,C,R,l,r) + LFE ch, ~640 kbps avg
Аудио#3: English: 48 kHz, DTS, 3/2 (L,C,R,l,r) + LFE ch, ~1509 kbps avg
Субтитры: Russian, English
***Сохранены оригинальные главы как на Blu-ray.
***Релиз - whalekilla.

MI

Общее
Уникальный идентификатор : 238705243556146280646855775935577952028 (0xB394F5283408BE1BB8123E043ECB8F1C)
Полное имя : DreamKeeper.[E01].2003.BDRip.(720p).mkv
Формат : Matroska
Версия формата : Version 4 / Version 2
Размер файла : 4,27 Гбайт
Продолжительность : 1 ч. 30 м.
Общий поток : 6784 Кбит/сек
Название фильма : DreamKeeper [E01] (2003)
Дата кодирования : UTC 2016-08-13 10:35:03
Программа кодирования : mkvmerge v6.9.1 ('Blue Panther') 64bit built on Apr 18 2014 18:23:38
Библиотека кодирования : libebml v1.3.0 + libmatroska v1.4.1
Видео
Идентификатор : 1
Формат : AVC
Формат/Информация : Advanced Video Codec
Профиль формата : High@L4.1
Параметр CABAC формата : Да
Параметр ReFrames формата : 9 кадров
Идентификатор кодека : V_MPEG4/ISO/AVC
Продолжительность : 1 ч. 30 м.
Битрейт : 4441 Кбит/сек
Ширина : 1280 пикселей
Высота : 720 пикселей
Соотношение сторон : 16:9
Режим частоты кадров : Постоянный
Частота кадров : 23,976 кадра/сек
Цветовое пространство : YUV
Субдискретизация насыщенности : 4:2:0
Битовая глубина : 8 бит
Тип развёртки : Прогрессивная
Бит/(Пиксели*Кадры) : 0.201
Размер потока : 2,71 Гбайт (64%)
Заголовок : DreamKeeper [E01] (2003)
Библиотека кодирования : x264 core 148 r2638 7599210
Настройки программы : cabac=1 / ref=9 / deblock=1:-3:-3 / analyse=0x3:0x133 / me=umh / subme=11 / psy=1 / psy_rd=1.00:0.00 / mixed_ref=1 / me_range=32 / chroma_me=1 / trellis=2 / 8x8dct=1 / cqm=0 / deadzone=21,11 / fast_pskip=1 / chroma_qp_offset=-2 / threads=6 / lookahead_threads=1 / sliced_threads=0 / nr=0 / decimate=1 / interlaced=0 / bluray_compat=0 / constrained_intra=0 / bframes=5 / b_pyramid=2 / b_adapt=2 / b_bias=0 / direct=3 / weightb=1 / open_gop=0 / weightp=2 / keyint=240 / keyint_min=23 / scenecut=40 / intra_refresh=0 / rc_lookahead=60 / rc=2pass / mbtree=1 / bitrate=4441 / ratetol=1.0 / qcomp=0.60 / qpmin=0 / qpmax=69 / qpstep=4 / cplxblur=20.0 / qblur=0.5 / vbv_maxrate=50000 / vbv_bufsize=62500 / nal_hrd=none / filler=0 / ip_ratio=1.40 / aq=1:1.00
Язык : English
Default : Да
Forced : Нет
Аудио #1
Идентификатор : 2
Формат : AC-3
Формат/Информация : Audio Coding 3
Расширение режима : CM (complete main)
Параметр Endianness формата : Big
Идентификатор кодека : A_AC3
Продолжительность : 1 ч. 30 м.
Вид битрейта : Постоянный
Битрейт : 192 Кбит/сек
Каналы : 2 канала
Расположение каналов : Front: L R
Частота : 48,0 КГц
Метод сжатия : С потерями
Размер потока : 124 Мбайт (3%)
Заголовок : AC3, 2 ch, 192 Kbps, MVO
Язык : Russian
Default : Да
Forced : Нет
Аудио #2
Идентификатор : 3
Формат : AC-3
Формат/Информация : Audio Coding 3
Расширение режима : CM (complete main)
Параметр Endianness формата : Big
Идентификатор кодека : A_AC3
Продолжительность : 1 ч. 30 м.
Вид битрейта : Постоянный
Битрейт : 640 Кбит/сек
Каналы : 6 каналов
Расположение каналов : Front: L C R, Side: L R, LFE
Частота : 48,0 КГц
Метод сжатия : С потерями
Размер потока : 413 Мбайт (9%)
Заголовок : AC3, 6 ch, 640 Kbps, Original
Язык : English
Default : Нет
Forced : Нет
Аудио #3
Идентификатор : 4
Формат : DTS
Формат/Информация : Digital Theater Systems
Режим : 16
Параметр Endianness формата : Big
Идентификатор кодека : A_DTS
Продолжительность : 1 ч. 30 м.
Вид битрейта : Постоянный
Битрейт : 1509 Кбит/сек
Каналы : 6 каналов
Расположение каналов : Front: L C R, Side: L R, LFE
Частота : 48,0 КГц
Битовая глубина : 16 бит
Метод сжатия : С потерями
Размер потока : 974 Мбайт (22%)
Заголовок : DTS, 6 ch, 1509 Kbps, Original
Язык : English
Default : Нет
Forced : Нет
Текст #1
Идентификатор : 5
Формат : UTF-8
Идентификатор кодека : S_TEXT/UTF8
Идентификатор кодека/Информация : UTF-8 Plain Text
Язык : Russian
Default : Нет
Forced : Нет
Текст #2
Идентификатор : 6
Формат : UTF-8
Идентификатор кодека : S_TEXT/UTF8
Идентификатор кодека/Информация : UTF-8 Plain Text
Язык : English
Default : Нет
Forced : Нет
Меню
00:00:00.000 : en:00:00:00.000
00:07:17.228 : en:00:07:17.228
00:14:55.185 : en:00:14:55.185
00:21:36.044 : en:00:21:36.044
00:29:05.994 : en:00:29:05.994
00:37:02.428 : en:00:37:02.428
00:44:31.043 : en:00:44:31.043
00:50:57.971 : en:00:50:57.971
00:58:10.820 : en:00:58:10.820
01:07:36.594 : en:01:07:36.594
01:13:14.973 : en:01:13:14.973
01:20:40.877 : en:01:20:40.877
01:30:11.697 : en:01:30:11.697

Скриншоты


[Профиль] [ЛС]
Кто просматривает тему:

Форум Тема Автор Размер
BBC BBC: Властители денег / Masters of Money [серии 1-3 из 3] (Martin Small, Tristan Quinn, Will Yearsley) [2010 г., Документальный, эконмика, политика, история, SATRip] skorpionN 2.23 GB
BBC BBC: Карты: Власть, Грабеж и Владения / Maps: Power, Plunder and Possession [серии 1-3 из 3] (Рози Шелленберг, Хелен Никсон, Аннабэль Хоблей) [2010 г., Документальный, исследование, картография,... skorpionN 4.43 GB
Discovery Discovery. Под властью роботов / Discovery. When Robots Rule (Ворнер Барнез) [01.03.2014, документальный, HDTVRip] reversefile 510 MB
Фильмы (HD DVD, Blu-ray и BDRemux) Абсолютная власть / Imperium (2016) BDRemux 1080p | P достали все 24.76 GB
Фильмы (HD DVD, Blu-ray и BDRemux) Абсолютная власть / Imperium (2016) BDRemux 1080p от ExKinoRay | L Russian Mafia 26.25 GB
Фильмы (HD Rips | 720p, 1080p) Абсолютная власть / Imperium (2016) BDRip 1080p | L достали все 13.9 GB
Фильмы (HD Rips | 720p, 1080p) Абсолютная власть / Imperium (2016) BDRip 720p | L достали все 8.28 GB
Фильмы 2016 года Абсолютная власть / Imperium (2016) BDRip | P достали все 1.46 GB
Показать сообщения:    

Текущее время: Сегодня 10:59

Часовой пояс: GMT



Вы не можете начинать темы
Вы не можете отвечать на сообщения
Вы не можете редактировать свои сообщения
Вы не можете удалять свои сообщения
Вы не можете голосовать в опросах
Вы не можете прикреплять файлы к сообщениям
Вы не можете скачивать файлы