Властелин колец: Две сорванные башни / The Lord of the Rings: The Two Towers (2003) BDRip 1080p | Смешной перевод

 
Автор Сообщение

Russian Mafia ®

Пол:

Стаж: 1 год 8 месяцев

Сообщений: 4257



Награды: 10 (Подробнее)

Top Releaser 4 (Количество: 1) За внесенный вклад в развитие сайта (Количество: 1) Mega Seeder 2 (Количество: 1)
Торрент-статистика

Создавать темы 26-Апр-2016 07:22

[Цитировать]

Информация о фильме
Название: Властелин колец: Две сорванные башни
Оригинальное название: The Lord of the Rings: The Two Towers
Год выхода: 2002 / 2003
Жанр: Пародия, комедия, юмористический перевод
Режиссер: Питер Джексон, Дмитрий "Goblin" Пучков
В ролях: Элайджа Вуд, Шон Эстин, Вигго Мортенсен, Иэн МакКеллен, Доминик Монахэн, Билли Бойд, Орландо Блум, Джон Рис-Дэвис, Кристофер Ли
О фильме:
Бывший мордовский интеллигент Голый ведет на свою малую родину носителя зловредного кольца Федора Сумкина и его друга Сеню Ганджубаса. Агроном, Гиви и Логоваз ведут преследование банды педофилов из первой серии. Сарумян, сын Вассермана и шестерка Саурона, осуществляет акт агрессии против Незалежной Рохляндии. Перед лицом нависшей опасности сильно пьющий атаман Борис принимает решение всем колхозом спрятаться на даче. На помощь обороняющимся дачникам подтягиваются Саша Белый со своей бригадой и заградотряд эльфийских стрелков «Белые колготки».
Страна: США, Новая Зеландия
Продолжительность: 02:58:55
Перевод: профессиональный одноголосый (смешной перевод студии Божья искра)
Файл
Качество: BDRip 1080p
Формат: MP4
Видео: MPEG-4 AVC, 1920x1080, 10.0 Mbps, 24 fps
Аудио: 48 kHz, AAC, 2 ch, ~128 kbps avg
Семпл
Примечание автора раздачи:
Релиз от Альянса Вольных Переводчиков.
Знаменитый перевод пересобран в HD-качестве. Все видеоэффекты сделаны с нуля. Ремастеринг - Андрей Кравец.
Официальный сайт

MI

General
Complete name : D:__==film_FDve.sorvannye.bashni.2003.BDRip.1080p.mp4
Format : MPEG-4
Codec ID : M4V (M4V /M4A /mp42/isom)
File size : 12.7 GiB
Duration : 2h 58mn
Overall bit rate mode : Variable
Overall bit rate : 10.2 Mbps
Movie name : DSB_HD_Remaster_2015
Movie_More : video
Album/Performer : video
Performer : video
Deion : video
Encoded date : UTC 2015-12-17 13:52:20
Tagged date : UTC 2015-12-17 15:05:29
Keyword : video
Video
ID : 2
Format : AVC
Format/Info : Advanced Video Codec
Format profile : High@L4
Format settings, CABAC : Yes
Format settings, ReFrames : 2 frames
Format settings, GOP : M=2, N=30
Codec ID : avc1
Codec ID/Info : Advanced Video Coding
Duration : 2h 58mn
Bit rate mode : Variable
Bit rate : 10.0 Mbps
Maximum bit rate : 768 Kbps
Width : 1 920 pixels
Height : 1 080 pixels
Display aspect ratio : 16:9
Frame rate mode : Constant
Frame rate : 24.000 fps
Original frame rate : 25.000 fps
Color space : YUV
Chroma subsampling : 4:2:0
Bit depth : 8 bits
Scan type : Progressive
Bits/(Pixel*Frame) : 0.202
Stream size : 12.5 GiB (99%)
Title : Core Media Video
Encoded date : UTC 2015-12-17 13:52:20
Tagged date : UTC 2015-12-17 15:05:29
Color range : Limited
Color primaries : BT.709
Transfer characteristics : BT.709
Matrix coefficients : BT.709
Audio
ID : 1
Format : AAC
Format/Info : Advanced Audio Codec
Format profile : LC
Codec ID : 40
Duration : 2h 58mn
Source duration : 2h 58mn
Bit rate mode : Constant
Bit rate : 128 Kbps
Channel(s) : 2 channels
Channel positions : Front: L R
Sampling rate : 48.0 KHz
Frame rate : 46.875 fps (1024 spf)
Compression mode : Lossy
Stream size : 160 MiB (1%)
Source stream size : 160 MiB (1%)
Title : Core Media Audio
Language : Russian
Encoded date : UTC 2015-12-17 13:52:20
Tagged date : UTC 2015-12-17 15:05:29
Релиз от:
[Профиль] [ЛС]
Кто просматривает тему:

Форум Тема Автор Размер
BBC BBC: Властители денег / Masters of Money [серии 1-3 из 3] (Martin Small, Tristan Quinn, Will Yearsley) [2010 г., Документальный, эконмика, политика, история, SATRip] skorpionN 2.23 GB
BBC BBC: Карты: Власть, Грабеж и Владения / Maps: Power, Plunder and Possession [серии 1-3 из 3] (Рози Шелленберг, Хелен Никсон, Аннабэль Хоблей) [2010 г., Документальный, исследование, картография,... skorpionN 4.43 GB
Discovery Discovery. Под властью роботов / Discovery. When Robots Rule (Ворнер Барнез) [01.03.2014, документальный, HDTVRip] reversefile 510 MB
Фильмы (HD DVD, Blu-ray и BDRemux) Абсолютная власть / Imperium (2016) BDRemux 1080p | P достали все 24.76 GB
Фильмы (HD DVD, Blu-ray и BDRemux) Абсолютная власть / Imperium (2016) BDRemux 1080p от ExKinoRay | L Russian Mafia 26.25 GB
Фильмы (HD Rips | 720p, 1080p) Абсолютная власть / Imperium (2016) BDRip 1080p | L достали все 13.9 GB
Фильмы (HD Rips | 720p, 1080p) Абсолютная власть / Imperium (2016) BDRip 720p | L достали все 8.28 GB
Фильмы 2016 года Абсолютная власть / Imperium (2016) BDRip | P достали все 1.46 GB
Показать сообщения:    

Текущее время: Сегодня 22:41

Часовой пояс: GMT



Вы не можете начинать темы
Вы не можете отвечать на сообщения
Вы не можете редактировать свои сообщения
Вы не можете удалять свои сообщения
Вы не можете голосовать в опросах
Вы не можете прикреплять файлы к сообщениям
Вы не можете скачивать файлы