Властелин колец: Братство кольца / The Lord of the Rings: The Fellowship of the Ring (2001) BDRip 720p | 60 fps | D, P, A | Theatrical Editions

 
Автор Сообщение

sergej644 ®

Пол:

Стаж: 4 года 11 месяцев

Сообщений: 6043

Откуда: Soviet Union



Награды: Нет

Торрент-статистика

Создавать темы 29-Сен-2014 18:42

[Цитировать]

- Информация о фильме
Русское название: Властелин колец: Братство кольца
Оригинальное название: The Lord of the Rings: The Fellowship of the Ring
Год выхода: 2001
Жанр: Фэнтези, боевик, приключения
Режиссер: Питер Джексон
Выпущено: США, Новая Зеландия
Продолжительность: 02:58:25
Перевод: Дублированный, Профессиональный (Многоголосый, закадровый), Авторский (Ю.Живов, П.Гланц, Д.Пучков(Goblin), Божья искра)
В ролях: Элайджа Вуд, Шон Эстин, Вигго Мортенсен, Иэн МакКеллен, Доминик Монахэн, Билли Бойд, Шон Бин, Орландо Блум, Джон Рис-Дэвис, Кристофер Ли-Сюжет фильма
Сказания о Средиземье — это хроника Великой войны за Кольцо, войны, длившейся не одну тысячу лет. Тот, кто владел Кольцом, получал власть над всеми живыми тварями, но был обязан служить злу. Тихая деревня, где живут хоббиты.
Волшебник Гэндальф, придя на 111-й день рождения к своему старому другу Бильбо Бэггинсу, начинает вести разговор о кольце, которое Бильбо нашел много лет назад. Это кольцо принадлежало когда-то темному властителю Средиземья Саурону, и оно дает большую власть своему обладателю.
Теперь Саурон хочет вернуть себе власть над Средиземьем. Бильбо отдает найденное кольцо своему племяннику Фродо, который пытается научиться справляться с тем страшным могуществом, которое дает ему кольцо…-Файл
Качество: BDRip 720p (исходник Blu-ray Disc)
Видео: 1280x530, 5980 Кбит/сек, 59.940 кадр/сек, AVC, x264, High@L4.1, 2.40:1, 0.147 Бит/[Пиксели*Кадры]
Аудио 1: AC-3, 448 Кбит/сек, 6 канала(ов), 48,0 КГц - Дублированный / Русский
Аудио 2: AC-3, 448 Кбит/сек, 6 канала(ов), 48,0 КГц - Многоголосый закадровый / Русский
Аудио 3: AC-3, 448 Кбит/сек, 6 канала(ов), 48,0 КГц - Одноголосый закадровый, Ю.Живов / Русский
Аудио 4: AC-3, 448 Кбит/сек, 6 канала(ов), 48,0 КГц - Одноголосый закадровый, П.Гланц / Русский
Аудио 5: AC-3, 448 Кбит/сек, 6 канала(ов), 48,0 КГц - Одноголосый закадровый, Д.Пучков(Goblin) / Русский
Аудио 6: AC-3, 192 Кбит/сек, 2 канала(ов), 48,0 КГц - Одноголосый закадровый, Божья искра / Русский
Аудио 7: AC-3, 640 Кбит/сек, 6 канала(ов), 48,0 КГц - Оригинал / Английский
Субтитры: Русские | Полные, Английские | Полные
Форсированные субтитры: Русские
Чаптеры (Главы): Есть- Автор Рипа: Сообщество: -

Скриншоты

MediaInfo

Format : Matroska
Format version : Version 2
File size : 11.3 GiB
Duration : 2h 58mn
Overall bit rate : 9 052 Kbps
Movie name : Властелин колец: Братство кольца.(2001).BDRip.720p.[envy].[60fps]
Encoded date : UTC 2014-09-07 03:42:21
Writing application : mkvmerge v5.8.0 ('No Sleep / Pillow') built on Sep 2 2012 15:37:04
Writing library : libebml v1.2.3 + libmatroska v1.3.0
Video
ID : 1
Format : AVC
Format/Info : Advanced Video Codec
Format profile : High@L4.1
Format settings, CABAC : Yes
Format settings, ReFrames : 9 frames
Codec ID : V_MPEG4/ISO/AVC
Duration : 2h 58mn
Bit rate : 5 980 Kbps
Width : 1 280 pixels
Height : 530 pixels
Display aspect ratio : 2.40:1
Frame rate mode : Constant
Frame rate : 59.880 fps
Original frame rate : 59.940 fps
Color space : YUV
Chroma subsampling : 4:2:0
Bit depth : 8 bits
Scan type : Progressive
Bits/(Pixel*Frame) : 0.147
Stream size : 7.23 GiB (64%)
Title : Властелин колец: Братство кольца.(2001).BDRip.720p.[envy].[60fps]
Writing library : x264 core 130 r2273 b3065e6
Encoding settings : cabac=1 / ref=9 / deblock=1:0:0 / analyse=0x3:0x133 / me=umh / subme=10 / psy=1 / psy_rd=1.00:0.00 / mixed_ref=1 / me_range=28 / chroma_me=1 / trellis=2 / 8x8dct=1 / cqm=0 / deadzone=21,11 / fast_pskip=0 / chroma_qp_offset=-2 / threads=12 / lookahead_threads=1 / sliced_threads=0 / nr=0 / decimate=1 / interlaced=0 / bluray_compat=0 / constrained_intra=0 / bframes=5 / b_pyramid=2 / b_adapt=2 / b_bias=0 / direct=3 / weightb=1 / open_gop=0 / weightp=2 / keyint=250 / keyint_min=25 / scenecut=40 / intra_refresh=0 / rc=2pass / mbtree=0 / bitrate=5980 / ratetol=1.0 / qcomp=0.60 / qpmin=0 / qpmax=69 / qpstep=4 / cplxblur=20.0 / qblur=0.5 / ip_ratio=1.40 / pb_ratio=1.30 / aq=2:1.00
Language : English
Default : Yes
Forced : No
Audio #1
ID : 2
Format : AC-3
Format/Info : Audio Coding 3
Mode extension : CM (complete main)
Format settings, Endianness : Big
Codec ID : A_AC3
Duration : 2h 58mn
Bit rate mode : Constant
Bit rate : 448 Kbps
Channel(s) : 6 channels
Channel positions : Front: L C R, Side: L R, LFE
Sampling rate : 48.0 KHz
Bit depth : 16 bits
Compression mode : Lossy
Stream size : 572 MiB (5%)
Title : Dub
Language : Russian
Default : Yes
Forced : No
Audio #2
ID : 3
Format : AC-3
Format/Info : Audio Coding 3
Mode extension : CM (complete main)
Format settings, Endianness : Big
Codec ID : A_AC3
Duration : 2h 58mn
Bit rate mode : Constant
Bit rate : 448 Kbps
Channel(s) : 6 channels
Channel positions : Front: L C R, Side: L R, LFE
Sampling rate : 48.0 KHz
Bit depth : 16 bits
Compression mode : Lossy
Stream size : 572 MiB (5%)
Title : MVO
Language : Russian
Default : No
Forced : No
Audio #3
ID : 4
Format : AC-3
Format/Info : Audio Coding 3
Mode extension : CM (complete main)
Format settings, Endianness : Big
Codec ID : A_AC3
Duration : 2h 58mn
Bit rate mode : Constant
Bit rate : 448 Kbps
Channel(s) : 6 channels
Channel positions : Front: L C R, Side: L R, LFE
Sampling rate : 48.0 KHz
Bit depth : 16 bits
Compression mode : Lossy
Stream size : 572 MiB (5%)
Title : Zhivov
Language : Russian
Default : No
Forced : No
Audio #4
ID : 5
Format : AC-3
Format/Info : Audio Coding 3
Mode extension : CM (complete main)
Format settings, Endianness : Big
Codec ID : A_AC3
Duration : 2h 58mn
Bit rate mode : Constant
Bit rate : 448 Kbps
Channel(s) : 6 channels
Channel positions : Front: L C R, Side: L R, LFE
Sampling rate : 48.0 KHz
Bit depth : 16 bits
Compression mode : Lossy
Stream size : 572 MiB (5%)
Title : Glanc
Language : Russian
Default : No
Forced : No
Audio #5
ID : 6
Format : AC-3
Format/Info : Audio Coding 3
Mode extension : CM (complete main)
Format settings, Endianness : Big
Codec ID : A_AC3
Duration : 2h 58mn
Bit rate mode : Constant
Bit rate : 448 Kbps
Channel(s) : 6 channels
Channel positions : Front: L C R, Side: L R, LFE
Sampling rate : 48.0 KHz
Bit depth : 16 bits
Compression mode : Lossy
Stream size : 572 MiB (5%)
Title : Goblin
Language : Russian
Default : No
Forced : No
Audio #6
ID : 7
Format : AC-3
Format/Info : Audio Coding 3
Mode extension : CM (complete main)
Format settings, Endianness : Big
Codec ID : A_AC3
Duration : 2h 58mn
Bit rate mode : Constant
Bit rate : 192 Kbps
Channel(s) : 2 channels
Channel positions : Front: L R
Sampling rate : 48.0 KHz
Bit depth : 16 bits
Compression mode : Lossy
Stream size : 245 MiB (2%)
Title : Bozhja iskra
Language : Russian
Default : No
Forced : No
Audio #7
ID : 8
Format : AC-3
Format/Info : Audio Coding 3
Mode extension : CM (complete main)
Format settings, Endianness : Big
Codec ID : A_AC3
Duration : 2h 58mn
Bit rate mode : Constant
Bit rate : 640 Kbps
Channel(s) : 6 channels
Channel positions : Front: L C R, Side: L R, LFE
Sampling rate : 48.0 KHz
Bit depth : 16 bits
Compression mode : Lossy
Stream size : 817 MiB (7%)
Title : Eng
Language : English
Default : No
Forced : No
Text #1
ID : 9
Format : UTF-8
Codec ID : S_TEXT/UTF8
Codec ID/Info : UTF-8 Plain Text
Title : forced
Language : Russian
Default : Yes
Forced : Yes
Text #2
ID : 10
Format : UTF-8
Codec ID : S_TEXT/UTF8
Codec ID/Info : UTF-8 Plain Text
Title : full
Language : Russian
Default : No
Forced : No
Text #3
ID : 11
Format : UTF-8
Codec ID : S_TEXT/UTF8
Codec ID/Info : UTF-8 Plain Text
Title : full
Language : English
Default : No
Forced : No
Menu
00:00:00.000 : en:00:00:00.000
00:07:15.435 : en:00:07:15.435
00:11:36.946 : en:00:11:36.946
00:15:41.523 : en:00:15:41.523
00:20:05.162 : en:00:20:05.162
00:24:29.926 : en:00:24:29.926
00:26:43.226 : en:00:26:43.226
00:29:24.345 : en:00:29:24.345
00:38:31.017 : en:00:38:31.017
00:43:08.127 : en:00:43:08.127
00:46:59.149 : en:00:46:59.149
00:49:16.787 : en:00:49:16.787
00:55:10.598 : en:00:55:10.598
00:58:35.386 : en:00:58:35.386
01:00:17.739 : en:01:00:17.739
01:04:57.184 : en:01:04:57.184
01:07:28.419 : en:01:07:28.419
01:13:41.375 : en:01:13:41.375
01:15:42.246 : en:01:15:42.246
01:19:11.329 : en:01:19:11.329
01:22:44.417 : en:01:22:44.417
01:24:55.840 : en:01:24:55.840
01:26:34.731 : en:01:26:34.731
01:33:32.356 : en:01:33:32.356
01:35:25.469 : en:01:35:25.469
01:38:24.773 : en:01:38:24.773
01:43:06.305 : en:01:43:06.305
01:47:53.467 : en:01:47:53.467
01:52:49.679 : en:01:52:49.679
02:01:46.007 : en:02:01:46.007
02:11:27.462 : en:02:11:27.462
02:17:53.807 : en:02:17:53.807
02:23:22.468 : en:02:23:22.468
02:25:02.694 : en:02:25:02.694
02:25:55.413 : en:02:25:55.413
02:28:39.994 : en:02:28:39.994
02:35:10.134 : en:02:35:10.134
02:41:49.950 : en:02:41:49.950
02:44:24.646 : en:02:44:24.646
02:50:42.232 : en:02:50:42.232
02:58:23.776 : en:02:58:23.776
---
[Профиль] [ЛС]
Кто просматривает тему:

Форум Тема Автор Размер
BBC BBC: Властители денег / Masters of Money [серии 1-3 из 3] (Martin Small, Tristan Quinn, Will Yearsley) [2010 г., Документальный, эконмика, политика, история, SATRip] skorpionN 2.23 GB
BBC BBC: Карты: Власть, Грабеж и Владения / Maps: Power, Plunder and Possession [серии 1-3 из 3] (Рози Шелленберг, Хелен Никсон, Аннабэль Хоблей) [2010 г., Документальный, исследование, картография,... skorpionN 4.43 GB
Discovery Discovery. Под властью роботов / Discovery. When Robots Rule (Ворнер Барнез) [01.03.2014, документальный, HDTVRip] reversefile 510 MB
Фильмы (HD DVD, Blu-ray и BDRemux) Абсолютная власть / Imperium (2016) BDRemux 1080p | P достали все 24.76 GB
Фильмы (HD DVD, Blu-ray и BDRemux) Абсолютная власть / Imperium (2016) BDRemux 1080p от ExKinoRay | L Russian Mafia 26.25 GB
Фильмы (HD Rips | 720p, 1080p) Абсолютная власть / Imperium (2016) BDRip 1080p | L достали все 13.9 GB
Фильмы (HD Rips | 720p, 1080p) Абсолютная власть / Imperium (2016) BDRip 720p | L достали все 8.28 GB
Фильмы 2016 года Абсолютная власть / Imperium (2016) BDRip | P достали все 1.46 GB
Показать сообщения:    

Текущее время: Сегодня 08:08

Часовой пояс: GMT



Вы не можете начинать темы
Вы не можете отвечать на сообщения
Вы не можете редактировать свои сообщения
Вы не можете удалять свои сообщения
Вы не можете голосовать в опросах
Вы не можете прикреплять файлы к сообщениям
Вы не можете скачивать файлы