Властелин колец: Братва и кольцо / The Lord of the Rings: The Fellowship of the Ring (2002) BDRip 1080p | Смешной перевод

 
Автор Сообщение

BOSS ®

Пол:

Стаж: 2 года 1 месяц

Сообщений: 3729

Откуда: ODESSA



Награды: 20 (Подробнее)

Top Keeper 1 (Количество: 1) Top Seeder 4 (Количество: 1) За внесенный вклад в развитие сайта (Количество: 1)
Торрент-статистика

Создавать темы 25-Апр-2016 16:27

[Цитировать]

Информация о фильме
Название: Властелин колец: Братва и кольцо
Оригинальное название: The Lord of the Rings: The Fellowship of the Ring
Год выхода: 2001 / 2002
Жанр: Пародия, комедия, юмористический перевод
Режиссер: Питер Джексон, Дмитрий "Goblin" Пучков
В ролях: Элайджа Вуд, Иэн МакКеллен, Вигго Мортенсен, Шон Бин, Орландо Блум, Джон Рис-Дэвис, Иэн Холм, Шон Эстин, Билли Бойд, Доминик Монахэн
О фильме:
Коротышки жили и ни о чем не парились, пока случайно к Бульбе Сумкину не попало супермегакольцо, выкованное злым лордом Сауроном с целью поиметь все народы Средиземья. А когда старичок в свои сто одинадцать лет неожиданно свалил, сбагрив колечко племяннику Федору, начались проблемы. И вот за братвой в составе Федора, Пендальфа, Логоваза, Гиви, Агронома, Баралгина, Сени, Мерина и Пипина уже вовсю гонятся шестерки Саурона во главе с девятью эсесовцами и магом Сарумяном… Удастся ли им зарамсить проблему прежде чем мир накроется медным тазом?
Страна: США, Новая Зеландия
Продолжительность: 02:58:23
Перевод: профессиональный одноголосый (смешной перевод студии Божья искра)
Файл
Качество: BDRip 1080p
Формат: MP4
Видео: MPEG-4 AVC, 1920x1080, 10.0 Mbps, 24 fps
Аудио: 48 kHz, AAC, 2 ch, ~126 kbps avg
Семпл
Примечание автора раздачи:
Релиз от Альянса Вольных Переводчиков.
Знаменитый перевод пересобран в HD-качестве. Все видеоэффекты сделаны с нуля. Ремастеринг - Андрей Кравец.
Официальный сайт

MI

General
Complete name : D:__==film_FBratva.i.kolco.BDRip.1080p.mp4
Format : MPEG-4
Format profile : Base Media
Codec ID : isom (isom/iso2/avc1/mp41)
File size : 12.7 GiB
Duration : 2h 58mn
Overall bit rate mode : Variable
Overall bit rate : 10.2 Mbps
Writing application : Lavf57.20.100
Video
ID : 1
Format : AVC
Format/Info : Advanced Video Codec
Format profile : High@L4
Format settings, CABAC : Yes
Format settings, ReFrames : 2 frames
Format settings, GOP : M=2, N=30
Codec ID : avc1
Codec ID/Info : Advanced Video Coding
Duration : 2h 58mn
Bit rate mode : Variable
Bit rate : 10.0 Mbps
Maximum bit rate : 768 Kbps
Width : 1 920 pixels
Height : 1 080 pixels
Display aspect ratio : 16:9
Frame rate mode : Variable
Frame rate : 24.000 fps
Minimum frame rate : 12.057 fps
Maximum frame rate : 16 000.000 fps
Original frame rate : 25.000 fps
Color space : YUV
Chroma subsampling : 4:2:0
Bit depth : 8 bits
Scan type : Progressive
Bits/(Pixel*Frame) : 0.202
Stream size : 12.5 GiB (99%)
Color range : Limited
Color primaries : BT.709
Transfer characteristics : BT.709
Matrix coefficients : BT.709
Audio
ID : 2
Format : AAC
Format/Info : Advanced Audio Codec
Format profile : LC
Codec ID : 40
Duration : 2h 58mn
Bit rate mode : Constant
Bit rate : 126 Kbps
Channel(s) : 2 channels
Channel positions : Front: L R
Sampling rate : 48.0 KHz
Frame rate : 46.875 fps (1024 spf)
Compression mode : Lossy
Stream size : 161 MiB (1%)
Language : Russian
Default : Yes
Alternate group : 1
Релиз от:
[Профиль] [ЛС]
Кто просматривает тему:

Форум Тема Автор Размер
BBC BBC: Властители денег / Masters of Money [серии 1-3 из 3] (Martin Small, Tristan Quinn, Will Yearsley) [2010 г., Документальный, эконмика, политика, история, SATRip] skorpionN 2.23 GB
BBC BBC: Карты: Власть, Грабеж и Владения / Maps: Power, Plunder and Possession [серии 1-3 из 3] (Рози Шелленберг, Хелен Никсон, Аннабэль Хоблей) [2010 г., Документальный, исследование, картография,... skorpionN 4.43 GB
Discovery Discovery. Под властью роботов / Discovery. When Robots Rule (Ворнер Барнез) [01.03.2014, документальный, HDTVRip] reversefile 510 MB
Фильмы (HD DVD, Blu-ray и BDRemux) Абсолютная власть / Imperium (2016) BDRemux 1080p | P достали все 24.76 GB
Фильмы (HD DVD, Blu-ray и BDRemux) Абсолютная власть / Imperium (2016) BDRemux 1080p от ExKinoRay | L Russian Mafia 26.25 GB
Фильмы (HD Rips | 720p, 1080p) Абсолютная власть / Imperium (2016) BDRip 1080p | L достали все 13.9 GB
Фильмы (HD Rips | 720p, 1080p) Абсолютная власть / Imperium (2016) BDRip 720p | L достали все 8.28 GB
Фильмы 2016 года Абсолютная власть / Imperium (2016) BDRip | P достали все 1.46 GB
Показать сообщения:    

Текущее время: Сегодня 21:02

Часовой пояс: GMT



Вы не можете начинать темы
Вы не можете отвечать на сообщения
Вы не можете редактировать свои сообщения
Вы не можете удалять свои сообщения
Вы не можете голосовать в опросах
Вы не можете прикреплять файлы к сообщениям
Вы не можете скачивать файлы