(Шансон) Владислав Медяник - Серия «SUPER HITS COLLECTION. 20 лучших песен» - 2013, FLAC (image+.cue), lossless

 
Автор Сообщение

sergej644 ®

Пол:

Стаж: 4 года 11 месяцев

Сообщений: 6041

Откуда: Soviet Union



Награды: Нет

Торрент-статистика

Создавать темы 14-Июл-2015 04:28

[Цитировать]

Владислав Медяник / Серия «SUPER HITS COLLECTION. 20 лучших песен»
Жанр: Шансон
Страна-производитель диска: Россия
Год издания: 2013
Издатель (лейбл): Классик Компани
Страна: Россия
Аудиокодек: FLAC (*.flac)
Тип рипа: image+.cue
Битрейт аудио: lossless
Продолжительность: 01:17:44
Источник (релизер): Yrok
Наличие сканов в содержимом раздачи: да
Треклист:
01. Дзын-за-ра
02. Первая любовь
03. Кабакам кабацкий дым
04. Ангел снов
05. На фанерочке…
06. Пьяный водитель
07. Были мы романтики
08. Стучат колёса
09. Хиляем как-то с Лёвою…
10. Потерялись ключи
11. Новая сказка
12. Листопад
13. Бокал вина
14. Судьба-судьбинушка
15. Глупая
16. Последняя ночь
17. Кралечка
18. Воображение
19. Атаман
20. Послушай, сынок

Лог создания рипа

Exact Audio Copy V1.0 beta 1 from 15. November 2010
Отчёт EAC об извлечении, выполненном 23. апреля 2013, 17:03
Вячеслав Медяник / «SUPER HITS COLLECTION»
Дисковод: _NEC    DV-5800E   Adapter: 0  ID: 1
Режим чтения                 : Достоверность
Использование точного потока : Да
Отключение кэша аудио        : Да
Использование указателей C2  : Нет
Коррекция смещения при чтении                     : 6
Способность читать области Lead-in и Lead-out     : Нет
Заполнение пропущенных сэмплов тишиной            : Да
Удаление блоков с тишиной в начале и конце        : Нет
При вычислениях CRC использовались нулевые сэмплы : Да
Интерфейс                                         : Установленный внешний ASPI-интерфейс
Выходной формат : Внутренние WAV-операции
Формат сэмплов  : 44.100 Гц; 16 бит; стерео
TOC извлечённого CD
     Трек |   Старт  | Длительность | Начальный сектор | Конечный сектор
    ---------------------------------------------------------------------
       1  |  0:00.00 |    3:11.57   |           0      |      14381
       2  |  3:11.57 |    3:13.52   |       14382      |      28908
       3  |  6:25.34 |    4:28.34   |       28909      |      49042
       4  | 10:53.68 |    3:28.67   |       49043      |      64709
       5  | 14:22.60 |    3:12.22   |       64710      |      79131
       6  | 17:35.07 |    3:44.37   |       79132      |      95968
       7  | 21:19.44 |    3:25.04   |       95969      |     111347
       8  | 24:44.48 |    4:18.30   |      111348      |     130727
       9  | 29:03.03 |    4:01.27   |      130728      |     148829
      10  | 33:04.30 |    4:22.45   |      148830      |     168524
      11  | 37:27.00 |    4:29.38   |      168525      |     188737
      12  | 41:56.38 |    3:39.70   |      188738      |     205232
      13  | 45:36.33 |    3:35.24   |      205233      |     221381
      14  | 49:11.57 |    4:31.71   |      221382      |     241777
      15  | 53:43.53 |    3:11.04   |      241778      |     256106
      16  | 56:54.57 |    5:22.51   |      256107      |     280307
      17  | 62:17.33 |    3:03.43   |      280308      |     294075
      18  | 65:21.01 |    4:30.58   |      294076      |     314383
      19  | 69:51.59 |    3:36.28   |      314384      |     330611
      20  | 73:28.12 |    4:16.36   |      330612      |     349847
Характеристики диапазона извлечения и сообщения об ошибках
Выбранный диапазон
     Имя файла C:\Documents and Settings\Admin\Рабочий стол\Медяник Владислав - «SUPER HITS COLLECTION (2013г.)\Владислав Медяник - «SUPER HITS COLLECTION».wav
     Пиковый уровень 97.0 %
0.5 X
     Качество диапазона 100.0 %
     CRC теста D8C91179
     CRC копии D8C91179
     Копирование... OK
Ошибок не произошло
AccurateRip: сводка
Трек  1  нет в базе данных
Трек  2  нет в базе данных
Трек  3  нет в базе данных
Трек  4  нет в базе данных
Трек  5  нет в базе данных
Трек  6  нет в базе данных
Трек  7  нет в базе данных
Трек  8  нет в базе данных
Трек  9  нет в базе данных
Трек 10  нет в базе данных
Трек 11  нет в базе данных
Трек 12  нет в базе данных
Трек 13  нет в базе данных
Трек 14  нет в базе данных
Трек 15  нет в базе данных
Трек 16  нет в базе данных
Трек 17  нет в базе данных
Трек 18  нет в базе данных
Трек 19  нет в базе данных
Трек 20  нет в базе данных
Ни одного трека нет в базе AccurateRip
Конец отчёта

Лог проверки качества

AUDIOCHECKER v2.0 beta (build 457) - by Dester - opdester@freemail.hu
~~~~~~~~~~~~~~~~~~~~~~~~~~~~~~~~~~
-=== НЕ РЕДАКТИРУЙТЕ ЭТОТ ФАЙЛ! ===-
Путь: ...\Владислав Медяник - SUPER HITS COLLECTION. 20 лучших песен (2013) (Lossless)
1 -=- Владислав Медяник - «SUPER HITS COLLECTION».flac -=- CDDA (100%)
32799332

Скриншот спектра частот

[Профиль] [ЛС]

Создавать темы 14-Июл-2015 18:13 (спустя 13 часов)

Топик был перенесен из форума Сборники в форум Шансон и авторская песня
sergej644
 

Создавать темы 13-Авг-2015 11:04 (спустя 30 дней)

Топик был перенесен из форума Шансон и авторская песня в форум Сhanson
sergej644
 
Кто просматривает тему:

Показать сообщения:    

Текущее время: Сегодня 16:56

Часовой пояс: GMT



Вы не можете начинать темы
Вы не можете отвечать на сообщения
Вы не можете редактировать свои сообщения
Вы не можете удалять свои сообщения
Вы не можете голосовать в опросах
Вы не можете прикреплять файлы к сообщениям
Вы не можете скачивать файлы