Владимир Маяковский. Последний Апрель (Татьяна Фрейденссон) [2015, Документальный, HDTV 720p]

 
Автор Сообщение

TorrentFilm ®

Пол:

Стаж: 2 года

Сообщений: 7741



Награды: Нет

Торрент-статистика

Создавать темы 19-Апр-2015 00:04

[Цитировать]

Владимир Маяковский. Последний Апрель- Год выпуска: 2015
Страна: Россия
Студия: Первый Канал HD | Медиаконструктор
Жанр: Документальный
Продолжительность: 0:50:57
Редактор: Наталья Карабаева
Продюсеры: Людмила Снигирeва, Олег Вольнов
Автор и Режиссер: Татьяна Фрейденссон-Описание: К 85-й годовщине гибели поэта Маяковского его американская дочь Патриция выступила с заявлением: "Отец не покончил с собой. Его убили". Так считает не только она. Долгие годы никто не мог точно сказать, что произошло в роковой день 14 апреля 1930 года в небольшой комнате, где погиб Маяковский. Зато точно известно другое: с места происшествия пропал тот самый пистолет, из которого был сделан выстрел и часть вещдоков. А следствие грубо нарушило протокол… И даже вскрытие было сделано не по правилам…-Автор рипа: lrn
Автор записи: riper.am
Сэмпл: sendfile-Тип релиза: HDTV 720p
Контейнер: MKV
Видео: 1280x720 (16:9), 25,000 fps, H264, ~4000 kbps avg, ~0.174 bit/pixel
Аудио: 48 kHz, AC3 Dolby Digital, 3/2 (L,C,R,l,r) + LFE ch, ~384.00 kbps avg-

MediaInfo

GeneralUnique ID : 231026089519233897419023512802824703995 (0xADCE01A1B99A808D893B6FC72C564FFB)Complete name : E:\uTorrent.Temp\Temp\Vladimir.Mayakovskiy.Posledniy.Aprel.2015.HDTV.720p.x264-lrn.mkvFormat : MatroskaFormat version : Version 4 / Version 2File size : 1.56 GiBDuration : 50mn 57sOverall bit rate : 4 386 KbpsMovie name : Vladimir.Mayakovskiy.Posledniy.Aprel.2015.HDTV.720p.x264-lrnEncoded date : UTC 2010-02-22 21:41:31Writing application : mkvmerge v5.9.0 ('On The Loose') built on Dec 9 2012 15:37:01Writing library : libebml v1.3.0 + libmatroska v1.4.0DURATION : 00:50:57.240000000NUMBER_OF_FRAMES : 76431NUMBER_OF_BYTES : 1528558285_STATISTICS_WRITING_APP : mkvmerge v7.7.0 ('Six Voices') 32bit built on Feb 28 2015 23:23:00_STATISTICS_WRITING_DATE_UT : 2015-04-15 07:27:58_STATISTICS_TAGS : BPS DURATION NUMBER_OF_FRAMES NUMBER_OF_BYTES
VideoID : 1Format : AVCFormat/Info : Advanced Video CodecFormat profile : High@L4.1Format settings, CABAC : YesFormat settings, ReFrames : 8 framesCodec ID : V_MPEG4/ISO/AVCDuration : 50mn 57sBit rate : 4 000 KbpsWidth : 1 280 pixelsHeight : 720 pixelsDisplay aspect ratio : 16:9Frame rate mode : ConstantFrame rate : 25.000 fpsColor space : YUVChroma subsampling : 4:2:0Bit depth : 8 bitsScan type : ProgressiveBits/(Pixel*Frame) : 0.174Stream size : 1.39 GiB (89%)Writing library : x264 core 146 r2538 121396cEncoding settings : cabac=1 / ref=8 / deblock=1:-3:-3 / analyse=0x3:0x133 / me=umh / subme=9 / psy=1 / psy_rd=1.00:0.00 / mixed_ref=1 / me_range=32 / chroma_me=1 / trellis=2 / 8x8dct=1 / cqm=0 / deadzone=21,11 / fast_pskip=1 / chroma_qp_offset=-2 / threads=12 / lookahead_threads=2 / sliced_threads=0 / nr=0 / decimate=1 / interlaced=0 / bluray_compat=0 / constrained_intra=0 / bframes=8 / b_pyramid=2 / b_adapt=2 / b_bias=0 / direct=3 / weightb=1 / open_gop=0 / weightp=2 / keyint=250 / keyint_min=25 / scenecut=40 / intra_refresh=0 / rc_lookahead=50 / rc=2pass / mbtree=1 / bitrate=4000 / ratetol=1.0 / qcomp=0.60 / qpmin=0 / qpmax=69 / qpstep=4 / cplxblur=20.0 / qblur=0.5 / vbv_maxrate=62500 / vbv_bufsize=78125 / nal_hrd=none / filler=0 / ip_ratio=1.40 / aq=1:1.00Default : YesForced : No
AudioID : 2Format : AC-3Format/Info : Audio Coding 3Mode extension : CM (complete main)Format settings, Endianness : BigCodec ID : A_AC3Duration : 50mn 57sBit rate mode : ConstantBit rate : 384 KbpsChannel(s) : 6 channelsChannel positions : Front: L C R, Side: L R, LFESampling rate : 48.0 KHzBit depth : 16 bitsCompression mode : LossyStream size : 140 MiB (9%)Language : RussianDefault : YesForced : No

x264 log

raw [info]: 1280x720p 1:1 @ 25/1 fps (cfr)x264 [info]: using SAR=1/1x264 [info]: using cpu capabilities: MMX2 SSE2Fast SSSE3 SSE4.2 AVXx264 [info]: profile High, level 4.1x264 [info]: frame I:774 Avg QP:11.36 size:133829x264 [info]: frame P:21550 Avg QP:14.36 size: 42838x264 [info]: frame B:54107 Avg QP:17.30 size: 9274x264 [info]: consecutive B-frames: 4.1% 6.8% 5.7% 69.7% 5.3% 5.5% 1.4% 1.3% 0.2%x264 [info]: mb I I16..4: 4.2% 72.9% 22.8%x264 [info]: mb P I16..4: 2.3% 15.2% 2.1% P16..4: 35.5% 22.9% 14.6% 0.8% 0.3% skip: 6.0%x264 [info]: mb B I16..4: 0.3% 1.4% 0.2% B16..8: 31.6% 10.5% 2.4% direct: 6.8% skip:46.8% L0:38.6% L1:47.1% BI:14.3%x264 [info]: 8x8 transform intra:76.2% inter:51.2%x264 [info]: direct mvs spatial:98.6% temporal:1.4%x264 [info]: coded y,uvDC,uvAC intra: 74.8% 63.6% 46.0% inter: 22.4% 20.8% 3.8%x264 [info]: i16 v,h,dc,p: 38% 18% 5% 39%x264 [info]: i8 v,h,dc,ddl,ddr,vr,hd,vl,hu: 20% 15% 12% 6% 8% 10% 9% 10% 10%x264 [info]: i4 v,h,dc,ddl,ddr,vr,hd,vl,hu: 19% 15% 7% 7% 11% 12% 10% 9% 10%x264 [info]: i8c dc,h,v,p: 51% 22% 19% 8%x264 [info]: Weighted P-Frames: Y:8.4% UV:2.7%x264 [info]: ref P L0: 60.0% 9.1% 15.6% 5.2% 3.7% 2.4% 2.2% 1.4% 0.3% 0.0%x264 [info]: ref B L0: 84.0% 9.3% 3.1% 1.5% 1.0% 0.7% 0.4%x264 [info]: ref B L1: 96.5% 3.5%x264 [info]: kb/s:3999.84encoded 76431 frames, 15.63 fps, 3999.84 kb/s

Скриншоты

-
[Профиль] [ЛС]
Кто просматривает тему:

Форум Тема Автор Размер
Шансон, авторская и военная песня (Author's Song) Владимир Высоцкий - Коллекция (New Sound) [15] - 2005 - 2007, MP3 (tracks+image) , 320 kbps sergej644 2.07 GB
Шансон, авторская и военная песня (Author's Song) Владимир Высоцкий - Лучшее (1, 2 Том) (4 CD) - 2008 [MP3, tracks, 320 kbps] sergej644 724 MB
Шансон, авторская и военная песня (Author's Song) Владимир Высоцкий в записях Михаила Шемякина (7CD) - Коллекция - 1996 [MP3, tracks, 320 kbps] sergej644 939 MB
Author's Song (Author's Song) Владимир Высоцкий. Спасибо, что живой (Коллекция изд. Амфора, 11 CD) 2011 - 2012, FLAC (image + .cue), lossless sergej644 2.53 GB
Шансон, авторская и военная песня (Author's Song) Владимир Высоцкий. Спасибо, что живой (Коллекция изд. Амфора, 11 CD) 2011 - 2012, [MP3, tracks, 320 kbps] sergej644 1.05 GB
Vinyl-Rip и Hand-Made (Chanson) [LP] [32/192] Владимир Высоцкий - Omagatoki (2 LP) - 1985 (Japan), WavPack (image+.cue) sergej644 2.99 GB
Rock (Rock) Владимир Кузьмин - Ангелы-мечты - 2014, FLAC (image + .cue), lossless sergej644 424 MB
Rock (Rock)Владимир Кузьмин - Лучшие песни (2CD) 2007, [FLAC (tracks+cue), lossless] sergej644 1.09 GB
Показать сообщения:    

Текущее время: Сегодня 20:47

Часовой пояс: GMT



Вы не можете начинать темы
Вы не можете отвечать на сообщения
Вы не можете редактировать свои сообщения
Вы не можете удалять свои сообщения
Вы не можете голосовать в опросах
Вы не можете прикреплять файлы к сообщениям
Вы не можете скачивать файлы