(Rock)Владимир Кузьмин - Лучшие песни (2CD) 2007, [FLAC (tracks+cue), lossless]

 
Author Message

sergej644 ®

Gender:

Longevity: 8 years 2 months

Posts: 7321



: 10 ()

Mega Seeder 2 (1) Mega Seeder 5 (1) Top Seeder 3 (1)
Торрент-статистика

Post 20-Dec-2014 00:33

[Quote]

--Владимир Кузьмин - Лучшие песни (2CD)

Страна: Russia
Страна производитель диска: Russia
Жанр: Rock
Год выпуска: 2007
Издатель: (Лейбл) Grand Records
Номер по каталогу: GR CD - 466 -1/2
Формат: FLAC
Тип рипа: tracks+cue
Битрейт аудио: lossless
Продолжительность: 02:36:35
Полиграфия: присутствует

Часть I | 01:18:53

01.Семь морей (04:47)
02.Белая луна (05:08)
03.Святой ручей (04:53)
04.Еще вчера (03:35)
05.Я возвращался домой (04:05)
06.Ливень (06:30)
07.Моя любовь (03:25)
08.Позвони мне среди ночи (04:52)
09.Пять минут от дома твоего (05:23)
10.Если бы ты знала (05:07)
11.Я не Казанова (03:44)
12.Нет, я не верю (03:42)
13.Небеса (04:36)
14.Желтая дорога (04:28)
15.Зачем уходишь ты (04:45)
16.Мама, я попал в беду (07:34)
17.Королева красоты (Bonus track) (02:10)

лог создания рипа

EZ CD Audio Converter 2.3.0 64-bit (Nov  5 2014)
Log creation date: Dec 16 2014 08:02
Device: [ I: ] Optiarc DVD RW AD-7240S 1.01
Profile                         : Normal
Read mode                       : Normal
C2 pointers                     : Disabled
AccurateCDDA                    : Enabled
Software synchronization        : Disabled
Drive read cache                : Enabled
Verify audio                    : Disabled
Drive spin-up                   : Disabled
Sample offset                   : 0
Calculate ReplayGain            : Disabled
Apply ReplayGain                : Disabled
Fade In                         : Disabled
Fade Out                        : Disabled
Delete leading digital silence  : Disabled
Add leading silence             : Disabled
Delete trailing digital silence : Disabled
Add trailing silence            : Disabled
Output format                   : .flac | Free Lossless Audio Codec
Encoder                         : FLAC 1.3.0
Bit depth                       : Auto
Channels                        : Stereo
Sample rate                     : Auto
Compression level               : 5
      Track   Start      Length     Start sector   End sector
-------------------------------------------------------------
[X]  01      00:00.00   04:47.50   0              21574
[X]  02      04:47.50   05:08.07   21575          44681
[X]  03      09:55.57   04:53.39   44682          66695
[X]  04      14:49.21   03:35.52   66696          82872
[X]  05      18:24.73   04:05.51   82873          101298
[X]  06      22:30.49   06:30.65   101299         130613
[X]  07      29:01.39   03:25.00   130614         145988
[X]  08      32:26.39   04:52.61   145989         167949
[X]  09      37:19.25   05:23.07   167950         192181
[X]  10      42:42.32   05:07.74   192182         215280
[X]  11      47:50.31   03:44.59   215281         232139
[X]  12      51:35.15   03:42.37   232140         248826
[X]  13      55:17.52   04:36.32   248827         269558
[X]  14      59:54.09   04:28.36   269559         289694
[X]  15      64:22.45   04:45.57   289695         311126
[X]  16      69:08.27   07:34.10   311127         345186
[X]  17      76:42.37   02:10.47   345187         354983
-------------------------------------------------------------
Summary
-------
17 total tracks
17 copied successfully
0 copied with errors
0 failed
Track   Status      CRC        Filename
---------------------------------------
1      Success     0F72FD22   "01. Семь морей.flac"
2      Success     2334A949   "02. Белая луна.flac"
3      Success     79BB8FF0   "03. Святой ручей.flac"
4      Success     1227250F   "04. Еще вчера.flac"
5      Success     F44115C8   "05. Я возвращался домой.flac"
6      Success     7649A45B   "06. Ливень.flac"
7      Success     A946E53D   "07. Моя любовь.flac"
8      Success     95230ED7   "08. Позвони мне среди ночи.flac"
9      Success     D271FB2C   "09. Пять минут от дома твоего.flac"
10      Success     7EFF89DB   "10. Если бы ты знала.flac"
11      Success     56DF6732   "11. Я не Казанова.flac"
12      Success     70C5959E   "12. Нет, я не верю.flac"
13      Success     09F8E832   "13. Небеса.flac"
14      Success     79326269   "14. Желтая дорога.flac"
15      Success     FE4ECB4E   "15. Зачем уходишь ты.flac"
16      Success     5A133014   "16. Мама, я попал в беду.flac"
17      Success     10E53FD3   "17. Королева красоты (Bonus track).flac"
Details
-------
Track 1
     Filename "01. Семь морей.flac"
     CRC        : 0F72FD22
     Finished successfully
Track 2
     Filename "02. Белая луна.flac"
     CRC        : 2334A949
     Finished successfully
Track 3
     Filename "03. Святой ручей.flac"
     CRC        : 79BB8FF0
     Finished successfully
Track 4
     Filename "04. Еще вчера.flac"
     CRC        : 1227250F
     Finished successfully
Track 5
     Filename "05. Я возвращался домой.flac"
     CRC        : F44115C8
     Finished successfully
Track 6
     Filename "06. Ливень.flac"
     CRC        : 7649A45B
     Finished successfully
Track 7
     Filename "07. Моя любовь.flac"
     CRC        : A946E53D
     Finished successfully
Track 8
     Filename "08. Позвони мне среди ночи.flac"
     CRC        : 95230ED7
     Finished successfully
Track 9
     Filename "09. Пять минут от дома твоего.flac"
     CRC        : D271FB2C
     Finished successfully
Track 10
     Filename "10. Если бы ты знала.flac"
     CRC        : 7EFF89DB
     Finished successfully
Track 11
     Filename "11. Я не Казанова.flac"
     CRC        : 56DF6732
     Finished successfully
Track 12
     Filename "12. Нет, я не верю.flac"
     CRC        : 70C5959E
     Finished successfully
Track 13
     Filename "13. Небеса.flac"
     CRC        : 09F8E832
     Finished successfully
Track 14
     Filename "14. Желтая дорога.flac"
     CRC        : 79326269
     Finished successfully
Track 15
     Filename "15. Зачем уходишь ты.flac"
     CRC        : FE4ECB4E
     Finished successfully
Track 16
     Filename "16. Мама, я попал в беду.flac"
     CRC        : 5A133014
     Finished successfully
Track 17
     Filename "17. Королева красоты (Bonus track).flac"
     CRC        : 10E53FD3
     Finished successfully

содержание индексной карты *cue

TRACK 01 AUDIO
    PERFORMER "V.KUZMIN - 2007"
    TITLE "Семь морей"
    PERFORMER "V.KUZMIN - 2007"
FILE "01. Семь морей.flac" WAVE
    INDEX 01 00:00:00
  TRACK 02 AUDIO
    PERFORMER "V.KUZMIN - 2007"
    TITLE "Белая луна"
    PERFORMER "V.KUZMIN - 2007"
FILE "02. Белая луна.flac" WAVE
    INDEX 01 00:00:00
  TRACK 03 AUDIO
    PERFORMER "V.KUZMIN - 2007"
    TITLE "Святой ручей"
    PERFORMER "V.KUZMIN - 2007"
FILE "03. Святой ручей.flac" WAVE
    INDEX 01 00:00:00
  TRACK 04 AUDIO
    PERFORMER "V.KUZMIN - 2007"
    TITLE "Еще вчера"
    PERFORMER "V.KUZMIN - 2007"
FILE "04. Еще вчера.flac" WAVE
    INDEX 01 00:00:00
  TRACK 05 AUDIO
    PERFORMER "V.KUZMIN - 2007"
    TITLE "Я возвращался домой"
    PERFORMER "V.KUZMIN - 2007"
FILE "05. Я возвращался домой.flac" WAVE
    INDEX 01 00:00:00
  TRACK 06 AUDIO
    PERFORMER "V.KUZMIN - 2007"
    TITLE "Ливень"
    PERFORMER "V.KUZMIN - 2007"
FILE "06. Ливень.flac" WAVE
    INDEX 01 00:00:00
  TRACK 07 AUDIO
    PERFORMER "V.KUZMIN - 2007"
    TITLE "Моя любовь"
    PERFORMER "V.KUZMIN - 2007"
FILE "07. Моя любовь.flac" WAVE
    INDEX 01 00:00:00
  TRACK 08 AUDIO
    PERFORMER "V.KUZMIN - 2007"
    TITLE "Позвони мне среди ночи"
    PERFORMER "V.KUZMIN - 2007"
FILE "08. Позвони мне среди ночи.flac" WAVE
    INDEX 01 00:00:00
  TRACK 09 AUDIO
    PERFORMER "V.KUZMIN - 2007"
    TITLE "Пять минут от дома твоего"
    PERFORMER "V.KUZMIN - 2007"
FILE "09. Пять минут от дома твоего.flac" WAVE
    INDEX 01 00:00:00
  TRACK 10 AUDIO
    PERFORMER "V.KUZMIN - 2007"
    TITLE "Если бы ты знала"
    PERFORMER "V.KUZMIN - 2007"
FILE "10. Если бы ты знала.flac" WAVE
    INDEX 01 00:00:00
  TRACK 11 AUDIO
    PERFORMER "V.KUZMIN - 2007"
    TITLE "Я не Казанова"
    PERFORMER "V.KUZMIN - 2007"
FILE "11. Я не Казанова.flac" WAVE
    INDEX 01 00:00:00
  TRACK 12 AUDIO
    PERFORMER "V.KUZMIN - 2007"
    TITLE "Нет, я не верю"
    PERFORMER "V.KUZMIN - 2007"
FILE "12. Нет, я не верю.flac" WAVE
    INDEX 01 00:00:00
  TRACK 13 AUDIO
    PERFORMER "V.KUZMIN - 2007"
    TITLE "Небеса"
    PERFORMER "V.KUZMIN - 2007"
FILE "13. Небеса.flac" WAVE
    INDEX 01 00:00:00
  TRACK 14 AUDIO
    PERFORMER "V.KUZMIN - 2007"
    TITLE "Желтая дорога"
    PERFORMER "V.KUZMIN - 2007"
FILE "14. Желтая дорога.flac" WAVE
    INDEX 01 00:00:00
  TRACK 15 AUDIO
    PERFORMER "V.KUZMIN - 2007"
    TITLE "Зачем уходишь ты"
    PERFORMER "V.KUZMIN - 2007"
FILE "15. Зачем уходишь ты.flac" WAVE
    INDEX 01 00:00:00
  TRACK 16 AUDIO
    PERFORMER "V.KUZMIN - 2007"
    TITLE "Мама, я попал в беду"
    PERFORMER "V.KUZMIN - 2007"
FILE "16. Мама, я попал в беду.flac" WAVE
    INDEX 01 00:00:00
  TRACK 17 AUDIO
    PERFORMER "V.KUZMIN - 2007"
    TITLE "Королева красоты (Bonus track)"
    PERFORMER "V.KUZMIN - 2007"
FILE "17. Королева красоты (Bonus track).flac" WAVE
    INDEX 01 00:00:00

скриншоты проверки качества

Часть II | 01:17:41

01.Огонёк (04:25)
02.Пороги (03:56)
03.Я не забуду тебя (06:04)
04.Семнадцать лет (02:43)
05.Симона (04:04)
06.Пристань твоей надежды (04:41)
07.Мячик (03:44)
08.Капюшон (04:14)
09.Когда меня ты позовешь (05:28)
10.Ясная звезда (04:59)
11.Небесное притяжение (06:04)
12.Слезы в огне (04:51)
13.Белые дикие кони (04:33)
14.Ромео и Джульетта (04:41)
15.Мечты (03:55)
16.Баллада о королеве (04:25)
17.Сказка в моей жизни (04:47)

лог создания рипа

EZ CD Audio Converter 2.3.0 64-bit (Nov  5 2014)
Log creation date: Dec 16 2014 08:19
Device: [ I: ] Optiarc DVD RW AD-7240S 1.01
Profile                         : Normal
Read mode                       : Normal
C2 pointers                     : Disabled
AccurateCDDA                    : Enabled
Software synchronization        : Disabled
Drive read cache                : Enabled
Verify audio                    : Disabled
Drive spin-up                   : Disabled
Sample offset                   : 0
Calculate ReplayGain            : Disabled
Apply ReplayGain                : Disabled
Fade In                         : Disabled
Fade Out                        : Disabled
Delete leading digital silence  : Disabled
Add leading silence             : Disabled
Delete trailing digital silence : Disabled
Add trailing silence            : Disabled
Output format                   : .flac | Free Lossless Audio Codec
Encoder                         : FLAC 1.3.0
Bit depth                       : Auto
Channels                        : Stereo
Sample rate                     : Auto
Compression level               : 5
      Track   Start      Length     Start sector   End sector
-------------------------------------------------------------
[X]  01      00:00.00   04:25.46   0              19920
[X]  02      04:25.46   03:56.05   19921          37625
[X]  03      08:21.51   06:04.51   37626          64976
[X]  04      14:26.27   02:43.37   64977          77238
[X]  05      17:09.64   04:04.28   77239          95566
[X]  06      21:14.17   04:41.02   95567          116643
[X]  07      25:55.19   03:44.73   116644         133516
[X]  08      29:40.17   04:14.11   133517         152577
[X]  09      33:54.28   05:28.45   152578         177222
[X]  10      39:22.73   04:59.64   177223         199711
[X]  11      44:22.62   06:04.59   199712         227070
[X]  12      50:27.46   04:51.04   227071         248899
[X]  13      55:18.50   04:33.30   248900         269404
[X]  14      59:52.05   04:41.13   269405         290492
[X]  15      64:33.18   03:55.22   290493         308139
[X]  16      68:28.40   04:25.56   308140         328070
[X]  17      72:54.21   04:47.51   328071         349646
-------------------------------------------------------------
Summary
-------
17 total tracks
17 copied successfully
0 copied with errors
0 failed
Track   Status      CRC        Filename
---------------------------------------
1      Success     64B19271   "01. Огонёк.flac"
2      Success     A7DF088C   "02. Пороги.flac"
3      Success     5AC91900   "03. Я не забуду тебя.flac"
4      Success     745ABA8B   "04. Семнадцать лет.flac"
5      Success     AE7BC8B9   "05. Симона.flac"
6      Success     8EE32DFA   "06. Пристань твоей надежды.flac"
7      Success     BF4FC17C   "07. Мячик.flac"
8      Success     2DC1907E   "08. Капюшон.flac"
9      Success     0EB99DF8   "09. Когда меня ты позовешь.flac"
10      Success     397A7A00   "10. Ясная звезда.flac"
11      Success     DD6BC8BF   "11. Небесное притяжение.flac"
12      Success     31522E3C   "12. Слезы в огне.flac"
13      Success     9C814855   "13. Белые дикие кони.flac"
14      Success     3981340B   "14. Ромео и Джульетта.flac"
15      Success     030CEDDB   "15. Мечты.flac"
16      Success     57DBFAF4   "16. Баллада о королеве.flac"
17      Success     0FA00712   "17. Сказка в моей жизни.flac"
Details
-------
Track 1
     Filename "01. Огонёк.flac"
     CRC        : 64B19271
     Finished successfully
Track 2
     Filename "02. Пороги.flac"
     CRC        : A7DF088C
     Finished successfully
Track 3
     Filename "03. Я не забуду тебя.flac"
     CRC        : 5AC91900
     Finished successfully
Track 4
     Filename "04. Семнадцать лет.flac"
     CRC        : 745ABA8B
     Finished successfully
Track 5
     Filename "05. Симона.flac"
     CRC        : AE7BC8B9
     Finished successfully
Track 6
     Filename "06. Пристань твоей надежды.flac"
     CRC        : 8EE32DFA
     Finished successfully
Track 7
     Filename "07. Мячик.flac"
     CRC        : BF4FC17C
     Finished successfully
Track 8
     Filename "08. Капюшон.flac"
     CRC        : 2DC1907E
     Finished successfully
Track 9
     Filename "09. Когда меня ты позовешь.flac"
     CRC        : 0EB99DF8
     Finished successfully
Track 10
     Filename "10. Ясная звезда.flac"
     CRC        : 397A7A00
     Finished successfully
Track 11
     Filename "11. Небесное притяжение.flac"
     CRC        : DD6BC8BF
     Finished successfully
Track 12
     Filename "12. Слезы в огне.flac"
     CRC        : 31522E3C
     Finished successfully
Track 13
     Filename "13. Белые дикие кони.flac"
     CRC        : 9C814855
     Finished successfully
Track 14
     Filename "14. Ромео и Джульетта.flac"
     CRC        : 3981340B
     Finished successfully
Track 15
     Filename "15. Мечты.flac"
     CRC        : 030CEDDB
     Finished successfully
Track 16
     Filename "16. Баллада о королеве.flac"
     CRC        : 57DBFAF4
     Finished successfully
Track 17
     Filename "17. Сказка в моей жизни.flac"
     CRC        : 0FA00712
     Finished successfully

содержание индексной карты *cue

PERFORMER "Владимир Кузьмин"
TITLE "Лучшие песни - Часть II"
  TRACK 01 AUDIO
    PERFORMER "Владимир Кузьмин"
    TITLE "Огонёк"
FILE "01. Огонёк.flac" WAVE
    INDEX 01 00:00:00
  TRACK 02 AUDIO
    PERFORMER "Владимир Кузьмин"
    TITLE "Пороги"
FILE "02. Пороги.flac" WAVE
    INDEX 01 00:00:00
  TRACK 03 AUDIO
    PERFORMER "Владимир Кузьмин"
    TITLE "Я не забуду тебя"
FILE "03. Я не забуду тебя.flac" WAVE
    INDEX 01 00:00:00
  TRACK 04 AUDIO
    PERFORMER "Владимир Кузьмин"
    TITLE "Семнадцать лет"
FILE "04. Семнадцать лет.flac" WAVE
    INDEX 01 00:00:00
  TRACK 05 AUDIO
    PERFORMER "Владимир Кузьмин"
    TITLE "Симона"
FILE "05. Симона.flac" WAVE
    INDEX 01 00:00:00
  TRACK 06 AUDIO
    PERFORMER "Владимир Кузьмин"
    TITLE "Пристань твоей надежды"
FILE "06. Пристань твоей надежды.flac" WAVE
    INDEX 01 00:00:00
  TRACK 07 AUDIO
    PERFORMER "Владимир Кузьмин"
    TITLE "Мячик"
FILE "07. Мячик.flac" WAVE
    INDEX 01 00:00:00
  TRACK 08 AUDIO
    PERFORMER "Владимир Кузьмин"
    TITLE "Капюшон"
FILE "08. Капюшон.flac" WAVE
    INDEX 01 00:00:00
  TRACK 09 AUDIO
    PERFORMER "Владимир Кузьмин"
    TITLE "Когда меня ты позовешь"
FILE "09. Когда меня ты позовешь.flac" WAVE
    INDEX 01 00:00:00
  TRACK 10 AUDIO
    PERFORMER "Владимир Кузьмин"
    TITLE "Ясная звезда"
FILE "10. Ясная звезда.flac" WAVE
    INDEX 01 00:00:00
  TRACK 11 AUDIO
    PERFORMER "Владимир Кузьмин"
    TITLE "Небесное притяжение"
FILE "11. Небесное притяжение.flac" WAVE
    INDEX 01 00:00:00
  TRACK 12 AUDIO
    PERFORMER "Владимир Кузьмин"
    TITLE "Слезы в огне"
FILE "12. Слезы в огне.flac" WAVE
    INDEX 01 00:00:00
  TRACK 13 AUDIO
    PERFORMER "Владимир Кузьмин"
    TITLE "Белые дикие кони"
FILE "13. Белые дикие кони.flac" WAVE
    INDEX 01 00:00:00
  TRACK 14 AUDIO
    PERFORMER "Владимир Кузьмин"
    TITLE "Ромео и Джульетта"
FILE "14. Ромео и Джульетта.flac" WAVE
    INDEX 01 00:00:00
  TRACK 15 AUDIO
    PERFORMER "Владимир Кузьмин"
    TITLE "Мечты"
FILE "15. Мечты.flac" WAVE
    INDEX 01 00:00:00
  TRACK 16 AUDIO
    PERFORMER "Владимир Кузьмин"
    TITLE "Баллада о королеве"
FILE "16. Баллада о королеве.flac" WAVE
    INDEX 01 00:00:00
  TRACK 17 AUDIO
    PERFORMER "Владимир Кузьмин"
    TITLE "Сказка в моей жизни"
FILE "17. Сказка в моей жизни.flac" WAVE
    INDEX 01 00:00:00

скриншоты проверки качества

[Profile] [PM]
Кто просматривает тему:

Display posts from previous:    

The time now is: Today 14:22

All times are GMT



You cannot post new topics in this forum
You cannot reply to topics in this forum
You cannot edit your posts in this forum
You cannot delete your posts in this forum
You cannot vote in polls in this forum
You cannot attach files in this forum
You cannot download files in this forum