(Rock) Владимир Кузьмин - Ангелы-мечты - 2014, FLAC (image + .cue), lossless

 
Автор Сообщение

sergej644 ®

Пол:

Стаж: 4 года 11 месяцев

Сообщений: 6046

Откуда: Soviet Union



Награды: Нет

Торрент-статистика

Создавать темы 29-Окт-2014 21:26

[Цитировать]

--Владимир Кузьмин - Ангелы-мечты
Страна: Россия
Жанр: Rock
Год выпуска: 2014
Формат: FLAC (image + .cue)
Битрейт аудио: lossless
Продолжительность: 00:54:06
Полиграфия: отсутствует

треклист

01. Чужая даль (03:59)
02. Туман (04:35)
03. Я не такой плохой (05:28)
04. Мечта моя сбылась (03:51)
05. Свет в твоих глазах (04:04)
06. Белая звезда (04:35)
07. Лучший подарок судьбы (04:36)
08. Ангелы - мечты (05:55)
09. Она (04:32)
10. Холодна моя гитара (03:32)
11. Сколько лет (04:02)
12. Всё будет снова хорошо (04:05)
13. Ангелы - мечты (Реприз) (00:47)

лог создания рипа

Exact Audio Copy V1.0 beta 3 from 29. August 2011
Отчёт EAC об извлечении, выполненном 26. октября 2014, 18:24
Владимир Кузьмин / Ангелы-мечты
Дисковод: Optiarc DVD RW AD-7240S   Adapter: 0  ID: 0
Режим чтения                 : Достоверность
Использование точного потока : Да
Отключение кэша аудио        : Да
Использование указателей C2  : Нет
Коррекция смещения при чтении                     : 48
Способность читать области Lead-in и Lead-out     : Нет
Заполнение пропущенных сэмплов тишиной            : Да
Удаление блоков с тишиной в начале и конце        : Нет
При вычислениях CRC использовались нулевые сэмплы : Да
Интерфейс                                         : Встроенный Win32-интерфейс для Win NT/2000
Выходной формат          : Пользовательский кодировщик
Выбранный битрейт        : 128 kBit/s
Качество                 : Высокий
Добавление ID3-тега      : Нет
Утилита сжатия           : C:\Program Files (x86)\Exact Audio Copy\Flac\flac.exe
Дополнительные параметры :  -V -8 -T "Date=%year%" -T "Genre=%genre%" %source%
TOC извлечённого CD
     Трек |   Старт  | Длительность | Начальный сектор | Конечный сектор
    ---------------------------------------------------------------------
       1  |  0:00.00 |    3:59.25   |           0      |      17949
       2  |  3:59.25 |    4:35.01   |       17950      |      38575
       3  |  8:34.26 |    5:28.59   |       38576      |      63234
       4  | 14:03.10 |    3:51.70   |       63235      |      80629
       5  | 17:55.05 |    4:04.02   |       80630      |      98931
       6  | 21:59.07 |    4:35.26   |       98932      |     119582
       7  | 26:34.33 |    4:36.61   |      119583      |     140343
       8  | 31:11.19 |    5:55.05   |      140344      |     166973
       9  | 37:06.24 |    4:32.00   |      166974      |     187373
      10  | 41:38.24 |    3:32.61   |      187374      |     203334
      11  | 45:11.10 |    4:02.57   |      203335      |     221541
      12  | 49:13.67 |    4:05.10   |      221542      |     239926
      13  | 53:19.02 |    0:47.28   |      239927      |     243479
Характеристики диапазона извлечения и сообщения об ошибках
Выбранный диапазон
     Имя файла C:\Users\ннн\Music\Алиса Саботаж\Владимир Кузьмин - Ангелы-мечты (2014)\Владимир Кузьмин - Ангелы-мечты.wav
     Пиковый уровень 99.5 %
     Скорость извлечения 3.9 X
     Качество диапазона 100.0 %
     CRC теста 0B611937
     CRC копии 0B611937
     Копирование... OK
Ошибок не произошло
AccurateRip: сводка
Трек  1  отсутствует в базе данных
Трек  2  отсутствует в базе данных
Трек  3  отсутствует в базе данных
Трек  4  отсутствует в базе данных
Трек  5  отсутствует в базе данных
Трек  6  отсутствует в базе данных
Трек  7  отсутствует в базе данных
Трек  8  отсутствует в базе данных
Трек  9  отсутствует в базе данных
Трек 10  отсутствует в базе данных
Трек 11  отсутствует в базе данных
Трек 12  отсутствует в базе данных
Трек 13  отсутствует в базе данных
Ни одного трека нет в базе AccurateRip
Конец отчёта

содержание индексной карты *cue

REM GENRE Поп-Рок
REM DATE 2014
REM DISCID A10CAE0D
REM COMMENT "ExactAudioCopy v1.0b3"
PERFORMER "Владимир Кузьмин"
TITLE "Ангелы-мечты"
FILE "Владимир Кузьмин - Ангелы-мечты.flac" WAVE
  TRACK 01 AUDIO
    TITLE "01. Чужая даль"
    PERFORMER "Владимир Кузьмин"
    INDEX 01 00:00:00
  TRACK 02 AUDIO
    TITLE "02. Туман"
    PERFORMER "Владимир Кузьмин"
    INDEX 00 03:57:25
    INDEX 01 03:59:25
  TRACK 03 AUDIO
    TITLE "03. Я не такой плохой"
    PERFORMER "Владимир Кузьмин"
    INDEX 00 08:32:26
    INDEX 01 08:34:26
  TRACK 04 AUDIO
    TITLE "04. Мечта моя сбылась"
    PERFORMER "Владимир Кузьмин"
    INDEX 00 14:01:10
    INDEX 01 14:03:10
  TRACK 05 AUDIO
    TITLE "05. Свет в твоих глазах"
    PERFORMER "Владимир Кузьмин"
    INDEX 00 17:53:05
    INDEX 01 17:55:05
  TRACK 06 AUDIO
    TITLE "06. Белая звезда"
    PERFORMER "Владимир Кузьмин"
    INDEX 00 21:57:07
    INDEX 01 21:59:07
  TRACK 07 AUDIO
    TITLE "07. Лучший подарок судьбы"
    PERFORMER "Владимир Кузьмин"
    INDEX 00 26:32:33
    INDEX 01 26:34:33
  TRACK 08 AUDIO
    TITLE "08. Ангелы - мечты"
    PERFORMER "Владимир Кузьмин"
    INDEX 00 31:09:19
    INDEX 01 31:11:19
  TRACK 09 AUDIO
    TITLE "09. Она"
    PERFORMER "Владимир Кузьмин"
    INDEX 00 37:04:24
    INDEX 01 37:06:24
  TRACK 10 AUDIO
    TITLE "10. Холодна моя гитара"
    PERFORMER "Владимир Кузьмин"
    INDEX 00 41:36:24
    INDEX 01 41:38:24
  TRACK 11 AUDIO
    TITLE "11. Сколько лет"
    PERFORMER "Владимир Кузьмин"
    INDEX 00 45:09:10
    INDEX 01 45:11:10
  TRACK 12 AUDIO
    TITLE "12. Всё будет снова хорошо"
    PERFORMER "Владимир Кузьмин"
    INDEX 00 49:11:67
    INDEX 01 49:13:67
  TRACK 13 AUDIO
    TITLE "13. Ангелы - мечты (Реприз)"
    PERFORMER "Владимир Кузьмин"
    INDEX 00 53:17:02
    INDEX 01 53:19:02
-

adobe audition spectrogram

FLAC tester

--
[Профиль] [ЛС]

Создавать темы 13-Авг-2015 10:27 (спустя 9 месяцев 14 дней)

Топик был перенесен из форума Отечественная в форум Rock
sergej644
 
Кто просматривает тему:

Показать сообщения:    

Текущее время: Сегодня 01:28

Часовой пояс: GMT



Вы не можете начинать темы
Вы не можете отвечать на сообщения
Вы не можете редактировать свои сообщения
Вы не можете удалять свои сообщения
Вы не можете голосовать в опросах
Вы не можете прикреплять файлы к сообщениям
Вы не можете скачивать файлы