Владимир Красное Солнышко (Андрей Гарянин) [2014, Документалистика, HDTV 1080i]

 
Автор Сообщение

TorrentFilm ®

Пол:

Стаж: 2 года

Сообщений: 7741



Награды: Нет

Торрент-статистика

Создавать темы 19-Дек-2014 02:02

[Цитировать]

ВЛАДИМИР КРАСНОЕ СОЛНЫШКО
Год выпуска: 2014
Страна: Россия
Студия: Masterskaya Movie Compani
Жанр: Документалистика
Продолжительность: 00:41:34
Перевод: Не требуется
Русские субтитры: нет
Режиссер: Андрей Гарянин
Описание: В 988 году языческая Русь приняла христианство, а точнее "греческую веру" - православие.
Значение этого события трудно преувеличить. То, что произошло в конце X века, сказывается до сих пор на каждом из нас.
А ведь история могла развиваться совершенно иначе, если бы киевский князь Владимир выбрал для своего народа другую веру – католицизм, ислам или иудаизм.
Мы расскажем об обстоятельствах, в которых происходил "выбор веры". Летописный рассказ об этом, с которым каждый из нас знакомится еще в школе, правдив лишь отчасти. В действительности вокруг "выбора веры" накручен настоящий детективный сюжет. В нем сплелись государственный расчет, дипломатические интриги, жестокая война и, безусловно, любовь.
Все нити сходятся на одном человеке – князе Владимире. Интересно, что истинный язычник, содержавший гарем из сотни наложниц, вдруг отрекся от своего прошлого. Какие изменения произошли в его душе? Как распространялось православие по Руси? Это был долгий драматичный процесс, перевернувший сознание и судьбы множества людей.
Сэмпл: http://multi-up.com/1015258
Тип релиза: HDTV 1080i
Контейнер: TS
Видео: AVC, 1920х1080, 16:9, 8004 Кбит/сек, 25 fps
Аудио: MPEG Audio, 224 Кбит/сек, 48 КГц, 2 канала

MediaInfo

ОбщееИдентификатор : 16 (0x10)Полное имя : Vladimir. Red sun_HD.tsФормат : MPEG-TSРазмер файла : 2,51 ГбайтПродолжительность : 41 м.Режим общего битрейта : ПеременныйОбщий поток : 8658 Кбит/сек
ВидеоИдентификатор : 1901 (0x76D)Идентификатор меню : 901 (0x385)Формат : AVCФормат/Информация : Advanced Video CodecПрофиль формата : High@L4.0Параметр CABAC формата : ДаПараметр ReFrames формата : 3 кадраИдентификатор кодека : 27Продолжительность : 41 м.Битрейт : 8004 Кбит/секШирина : 1920 пикселейВысота : 1080 пикселейСоотношение сторон : 16:9Частота кадров : 25,000 кадров/секСтандарт вещания : PALЦветовое пространство : YUVСубдискретизация насыщенности : 4:2:0Битовая глубина : 8 битТип развёртки : ЧересстрочнаяПорядок развёртки : Верхнее поле первоеБит/(Пиксели*Кадры) : 0.154Размер потока : 2,32 Гбайт (92%)Основные цвета : BT.709Характеристики трансфера : BT.709Коэффициенты матрицы : BT.709
АудиоИдентификатор : 2901 (0xB55)Идентификатор меню : 901 (0x385)Формат : MPEG AudioВерсия формата : Version 1Профиль формата : Layer 2Идентификатор кодека : 4Продолжительность : 41 м.Вид битрейта : ПостоянныйБитрейт : 224 Кбит/секКаналы : 2 каналаЧастота : 48,0 КГцМетод сжатия : С потерямиЗадержка видео : 56 мс.Размер потока : 66,6 Мбайт (3%)Язык : stdЯзык, дополнительно : Clean effects

Скриншоты


-
Сообщения из этой темы [14 шт.] были выделены в отдельную тему Выделено из: Владимир Красное Солнышко (Андрей Гарянин) [2014, Документалистика, HDTV 1080i] [4876102]
Aids
[Профиль] [ЛС]
Кто просматривает тему:

Форум Тема Автор Размер
Шансон, авторская и военная песня (Author's Song) Владимир Высоцкий - Коллекция (New Sound) [15] - 2005 - 2007, MP3 (tracks+image) , 320 kbps sergej644 2.07 GB
Шансон, авторская и военная песня (Author's Song) Владимир Высоцкий - Лучшее (1, 2 Том) (4 CD) - 2008 [MP3, tracks, 320 kbps] sergej644 724 MB
Шансон, авторская и военная песня (Author's Song) Владимир Высоцкий в записях Михаила Шемякина (7CD) - Коллекция - 1996 [MP3, tracks, 320 kbps] sergej644 939 MB
Author's Song (Author's Song) Владимир Высоцкий. Спасибо, что живой (Коллекция изд. Амфора, 11 CD) 2011 - 2012, FLAC (image + .cue), lossless sergej644 2.53 GB
Шансон, авторская и военная песня (Author's Song) Владимир Высоцкий. Спасибо, что живой (Коллекция изд. Амфора, 11 CD) 2011 - 2012, [MP3, tracks, 320 kbps] sergej644 1.05 GB
Vinyl-Rip и Hand-Made (Chanson) [LP] [32/192] Владимир Высоцкий - Omagatoki (2 LP) - 1985 (Japan), WavPack (image+.cue) sergej644 2.99 GB
Rock (Rock) Владимир Кузьмин - Ангелы-мечты - 2014, FLAC (image + .cue), lossless sergej644 424 MB
Rock (Rock)Владимир Кузьмин - Лучшие песни (2CD) 2007, [FLAC (tracks+cue), lossless] sergej644 1.09 GB
Показать сообщения:    

Текущее время: Сегодня 02:28

Часовой пояс: GMT



Вы не можете начинать темы
Вы не можете отвечать на сообщения
Вы не можете редактировать свои сообщения
Вы не можете удалять свои сообщения
Вы не можете голосовать в опросах
Вы не можете прикреплять файлы к сообщениям
Вы не можете скачивать файлы