Владимир Зельдин: Страсти Дон Кихота (Татьяна Лебяжьева) [2015, Документальный, HDTV 720p]

 
Автор Сообщение

TorrentFilm ®

Пол:

Стаж: 2 года

Сообщений: 7741



Награды: Нет

Торрент-статистика

Создавать темы 12-Фев-2015 00:16

[Цитировать]

Владимир Зельдин: Страсти Дон Кихота- Год выпуска: 2015
Страна: Россия
Канал: Первый Канал HD
Жанр: Документальный
Продолжительность: 0:52:10
Режиссер: Татьяна Лебяжьева-Описание: 10 февраля 2015 года он обязательно выйдет на сцену. Как это обычно и бывает в последнее время – в свой день рождения. На этот раз – в сотый. Он слышал живьем Владимира Маяковского, к нему в гримерку заходила Анна Ахматова, он был запросто знаком с Василием Сталиным, ему приписывали роман с Мариной Ладыниной…-Автор рипа: lrn
Автор записи: mydimka
Сэмпл: Яндекс.Диск-Тип релиза: HDTV 720p
Контейнер: MKV
Видео: 1280x720 (16:9), 25,000 fps, H264, ~4000 kbps avg, ~0.174 bit/pixel
Аудио: 48 kHz, AC3 Dolby Digital, 3/2 (L,C,R,l,r) + LFE ch, ~384.00 kbps avg-

MediaInfo

General
Unique ID : 220959437887428601795194340992889147660 (0xA63B3D630627DCB3921892F133A0510C)
Complete name : E:\uTorrent.Temp\Temp\Vladimir.Zeldin.Strasti.Don.Kihota.2015.HDTV.720p.x264-lrn.mkv
Format : Matroska
Format version : Version 4 / Version 2
File size : 1.60 GiB
Duration : 52mn 10s
Overall bit rate : 4 385 Kbps
Movie name : 'Vladimir.Zeldin.Strasti.Don.Kihota.2015.HDTV.720p.x264-lrn' by lrn © 2015
Encoded date : UTC 2010-02-22 21:41:31
Writing application : mkvmerge v5.9.0 ('On The Loose') built on Dec 9 2012 15:37:01
Writing library : libebml v1.3.0 + libmatroska v1.4.0
DURATION : 00:52:10.560000000
NUMBER_OF_FRAMES : 78264
NUMBER_OF_BYTES : 1565124873
_STATISTICS_WRITING_APP : mkvmerge v7.0.0 ('Where We Going') 32bit built on Jun 9 2014 15:08:34
_STATISTICS_WRITING_DATE_UT : 2015-02-11 10:19:48
_STATISTICS_TAGS : BPS DURATION NUMBER_OF_FRAMES NUMBER_OF_BYTES
Video
ID : 1
Format : AVC
Format/Info : Advanced Video Codec
Format profile : High@L4.1
Format settings, CABAC : Yes
Format settings, ReFrames : 6 frames
Codec ID : V_MPEG4/ISO/AVC
Duration : 52mn 10s
Bit rate : 4 000 Kbps
Width : 1 280 pixels
Height : 720 pixels
Display aspect ratio : 16:9
Frame rate mode : Constant
Frame rate : 25.000 fps
Color space : YUV
Chroma subsampling : 4:2:0
Bit depth : 8 bits
Scan type : Progressive
Bits/(Pixel*Frame) : 0.174
Stream size : 1.43 GiB (89%)
Writing library : x264 core 142 r2431 ac76440
Encoding settings : cabac=1 / ref=6 / deblock=1:0:0 / analyse=0x3:0x133 / me=umh / subme=9 / psy=1 / psy_rd=1.00:0.00 / mixed_ref=1 / me_range=24 / chroma_me=1 / trellis=2 / 8x8dct=1 / cqm=0 / deadzone=21,11 / fast_pskip=1 / chroma_qp_offset=-2 / threads=12 / lookahead_threads=1 / sliced_threads=0 / nr=0 / decimate=1 / interlaced=0 / bluray_compat=0 / constrained_intra=0 / bframes=6 / b_pyramid=2 / b_adapt=2 / b_bias=0 / direct=3 / weightb=1 / open_gop=0 / weightp=2 / keyint=250 / keyint_min=25 / scenecut=40 / intra_refresh=0 / rc_lookahead=50 / rc=2pass / mbtree=1 / bitrate=4000 / ratetol=1.0 / qcomp=0.60 / qpmin=0 / qpmax=69 / qpstep=4 / cplxblur=20.0 / qblur=0.5 / ip_ratio=1.40 / aq=1:1.00
Default : Yes
Forced : No
Audio
ID : 2
Format : AC-3
Format/Info : Audio Coding 3
Mode extension : CM (complete main)
Format settings, Endianness : Big
Codec ID : A_AC3
Duration : 52mn 10s
Bit rate mode : Constant
Bit rate : 384 Kbps
Channel(s) : 6 channels
Channel positions : Front: L C R, Side: L R, LFE
Sampling rate : 48.0 KHz
Bit depth : 16 bits
Compression mode : Lossy
Stream size : 143 MiB (9%)
Language : Russian
Default : Yes
Forced : No

-

Скриншоты

-
[Профиль] [ЛС]
Кто просматривает тему:

Форум Тема Автор Размер
Шансон, авторская и военная песня (Author's Song) Владимир Высоцкий - Коллекция (New Sound) [15] - 2005 - 2007, MP3 (tracks+image) , 320 kbps sergej644 2.07 GB
Шансон, авторская и военная песня (Author's Song) Владимир Высоцкий - Лучшее (1, 2 Том) (4 CD) - 2008 [MP3, tracks, 320 kbps] sergej644 724 MB
Шансон, авторская и военная песня (Author's Song) Владимир Высоцкий в записях Михаила Шемякина (7CD) - Коллекция - 1996 [MP3, tracks, 320 kbps] sergej644 939 MB
Author's Song (Author's Song) Владимир Высоцкий. Спасибо, что живой (Коллекция изд. Амфора, 11 CD) 2011 - 2012, FLAC (image + .cue), lossless sergej644 2.53 GB
Шансон, авторская и военная песня (Author's Song) Владимир Высоцкий. Спасибо, что живой (Коллекция изд. Амфора, 11 CD) 2011 - 2012, [MP3, tracks, 320 kbps] sergej644 1.05 GB
Vinyl-Rip и Hand-Made (Chanson) [LP] [32/192] Владимир Высоцкий - Omagatoki (2 LP) - 1985 (Japan), WavPack (image+.cue) sergej644 2.99 GB
Rock (Rock) Владимир Кузьмин - Ангелы-мечты - 2014, FLAC (image + .cue), lossless sergej644 424 MB
Rock (Rock)Владимир Кузьмин - Лучшие песни (2CD) 2007, [FLAC (tracks+cue), lossless] sergej644 1.09 GB
Показать сообщения:    

Текущее время: Сегодня 06:25

Часовой пояс: GMT



Вы не можете начинать темы
Вы не можете отвечать на сообщения
Вы не можете редактировать свои сообщения
Вы не можете удалять свои сообщения
Вы не можете голосовать в опросах
Вы не можете прикреплять файлы к сообщениям
Вы не можете скачивать файлы