Владимир Зельдин. Страсти Дон Кихота (Татьяна Лебяжьева) [2015, Документальный, HDTV 1080i]

 
Автор Сообщение

TorrentFilm ®

Пол:

Стаж: 1 год 11 месяцев

Сообщений: 7741



Награды: Нет

Торрент-статистика

Создавать темы 12-Фев-2015 00:01

[Цитировать]

Владимир Зельдин. Страсти Дон Кихота
Год выпуска: 2015
Страна: Россия
Студия: Первый канал
Жанр: Документальный
Продолжительность: 00:52:11
Перевод: Не требуется
Русские субтитры: нет
Режиссер: Татьяна Лебяжьева
Описание: 10 февраля 2015 года он обязательно выйдет на сцену. Как это обычно и бывает в последнее время – в свой день рождения. На этот раз – в сотый. Он слышал живьем Владимира Маяковского, к нему в гримерку заходила Анна Ахматова, он был запросто знаком с Василием Сталиным, ему приписывали роман с Мариной Ладыниной… Он несколько раз стоял на пороге смерти, но каждый раз судьба хранила его. Его отправили на фронт в первые же месяцы войны, но вернули на съемочную площадку. В 37-м вызвали на Лубянку, но сфабрикованное дело чудом рассыпалось. В 80 лет он перенес обширный инфаркт, но уже через 4 месяца вновь вышел на сцену. А в 90 дебютировал в новом спектакле, где пел и танцевал как 40-летний. Книга рекордов Гиннеса за ним не успевает. Его творческая карьера продолжается, а интерес к жизни нисколько не угас. Рядом с ним всегда близкие люди: супруга, друзья, коллеги, поклонники. Может быть, в этом секрет долголетия? Мы зафиксируем этот рекорд – старейший действующий в мире театральный актер - и вручим Владимиру Зельдину сертификат "Книги рекордов России" на его спектакле, что станет для актера сюрпризом. Восторженными свидетелями этого станут благодарные зрители в зале, которых мы заранее известим о торжественном событии.
Доп. информация: Релиз -

Рип чистый. Без посторонних надписей. Выкладывается как есть.
Качество: HDTV 1080i
Контейнер: TS
Видео кодек: AVC
Аудио кодек: MP2, AC3
Видео: 1920x1080 (16:9) 25.000 fps ~ 10.1 Mbps, 0.195 bit/pixel
Аудио 1: MPEG Audio 48000Hz stereo 224 Кбит/сек
Аудио 2: AC3, 6 channels, 48000Hz, 384 Кбит/сек

Скриншоты

Скринлист

MI

GeneralID : 1 (0x1)Complete name : H:\ВЫКЛАДКА\Владимир Зельдин. Страсти Дон Кихота (2015, Документальный, HDTV 1080i) (MYDIMKA).tsFormat : MPEG-TSFile size : 4.04 GiBDuration : 52mn 10sOverall bit rate mode : VariableOverall bit rate : 11.1 Mbps
VideoID : 1603 (0x643)Menu ID : 603 (0x25B)Format : AVCFormat/Info : Advanced Video CodecFormat profile : High@L4.0Format settings, CABAC : YesFormat settings, ReFrames : 3 framesCodec ID : 27Duration : 52mn 10sBit rate : 9 963 KbpsWidth : 1 920 pixelsHeight : 1 080 pixelsDisplay aspect ratio : 16:9Frame rate : 25.000 fpsStandard : ComponentColor space : YUVChroma subsampling : 4:2:0Bit depth : 8 bitsScan type : InterlacedScan order : Top Field FirstBits/(Pixel*Frame) : 0.192Stream size : 3.63 GiB (90%)Color primaries : BT.709Transfer characteristics : BT.709Matrix coefficients : BT.709
Audio #1ID : 2603 (0xA2B)Menu ID : 603 (0x25B)Format : AC-3Format/Info : Audio Coding 3Mode extension : CM (complete main)Format settings, Endianness : BigCodec ID : 6Duration : 52mn 10sBit rate mode : ConstantBit rate : 384 KbpsChannel(s) : 6 channelsChannel positions : Front: L C R, Side: L R, LFESampling rate : 48.0 KHzBit depth : 16 bitsCompression mode : LossyStream size : 143 MiB (3%)Language : Russian
Audio #2ID : 2604 (0xA2C)Menu ID : 603 (0x25B)Format : MPEG AudioFormat version : Version 1Format profile : Layer 2Codec ID : 3Duration : 52mn 10sBit rate mode : ConstantBit rate : 192 KbpsChannel(s) : 2 channelsSampling rate : 48.0 KHzCompression mode : LossyStream size : 71.7 MiB (2%)Language : Russian
[Профиль] [ЛС]
Кто просматривает тему:

Форум Тема Автор Размер
Шансон, авторская и военная песня (Author's Song) Владимир Высоцкий - Коллекция (New Sound) [15] - 2005 - 2007, MP3 (tracks+image) , 320 kbps sergej644 2.07 GB
Шансон, авторская и военная песня (Author's Song) Владимир Высоцкий - Лучшее (1, 2 Том) (4 CD) - 2008 [MP3, tracks, 320 kbps] sergej644 724 MB
Шансон, авторская и военная песня (Author's Song) Владимир Высоцкий в записях Михаила Шемякина (7CD) - Коллекция - 1996 [MP3, tracks, 320 kbps] sergej644 939 MB
Author's Song (Author's Song) Владимир Высоцкий. Спасибо, что живой (Коллекция изд. Амфора, 11 CD) 2011 - 2012, FLAC (image + .cue), lossless sergej644 2.53 GB
Шансон, авторская и военная песня (Author's Song) Владимир Высоцкий. Спасибо, что живой (Коллекция изд. Амфора, 11 CD) 2011 - 2012, [MP3, tracks, 320 kbps] sergej644 1.05 GB
Vinyl-Rip и Hand-Made (Chanson) [LP] [32/192] Владимир Высоцкий - Omagatoki (2 LP) - 1985 (Japan), WavPack (image+.cue) sergej644 2.99 GB
Rock (Rock) Владимир Кузьмин - Ангелы-мечты - 2014, FLAC (image + .cue), lossless sergej644 424 MB
Rock (Rock)Владимир Кузьмин - Лучшие песни (2CD) 2007, [FLAC (tracks+cue), lossless] sergej644 1.09 GB
Показать сообщения:    

Текущее время: Сегодня 04:55

Часовой пояс: GMT



Вы не можете начинать темы
Вы не можете отвечать на сообщения
Вы не можете редактировать свои сообщения
Вы не можете удалять свои сообщения
Вы не можете голосовать в опросах
Вы не можете прикреплять файлы к сообщениям
Вы не можете скачивать файлы