(Авторская песня) Владимир Высоцкий - Концерт в Кёльне (Solyd Records 1979) - 2004 [FLAC, image +.cue, lossless]

 
Автор Сообщение

sergej644 ®

Пол:

Стаж: 4 года 11 месяцев

Сообщений: 6038

Откуда: Soviet Union



Награды: Нет

Торрент-статистика

Создавать темы 21-Янв-2016 13:40

[Цитировать]

-Владимир Высоцкий - Концерт в Кёльне-- Год | Год издания: 1979 | 2004
Страна: USSR
Жанр: Авторская песня
Продолжительность: 01:01:04-Лейбл издания: Solyd Records
Страна-выпуска диска: Russia
Номер по каталогу: SLR 01111-Формат: FLAC
Битрейт аудио: Lossless
Тип рипа: image +.cue
Наличие сканов в содержимом раздачи: да
-

Трэклист


01.Лекция о международном положении, прочитанная человеком, посаженным на 15 суток...(03:06)
02.Дайте собакам мяса(01:53)
03.Зарисовка из детства(02:06)
04.Баллада о детстве(05:54)
05.Одна научная загадка, или Почему аборигены съели Кука(03:08)
06.Зарисовка о Ленинграде(01:11)
07.Письмо к другу(01:37)
08.'Какой-то вояка заехал в Монако...'(00:19)
09.'Передо мной любой факир - ну просто карлик...'(01:05)
10.Бег иноходца(02:42)
11.Антиалкогольная(03:32)
12.'Что же ты, зараза, бровь себе подбрила...'(01:26)
13.Городской романс(02:08)
14.'Я любил и женщин, и проказы...'(01:48)
15.Смотрины(04:33)
16.Про Джеймса Бонда(04:29)
17.Пародия на плохой детектив(02:25)
18.Жертва телевидения (фрагмент)(02:39)
19.Чужая колея(03:01)
20.'Оплавляются свечи на старинный паркет...'(01:47)
21.Подводная лодка(01:09)
22.'Мы верные испытанные кони...'(00:36)
23.Случай на таможне(04:48)
24.Конец «Охоты на волков», или Охота с вертолётов(03:55)
-

Лог создания рипа

Exact Audio Copy V0.99 prebeta 5 from 29. November 2008
Отчёт EAC об извлечении, выполненном 21. января 2009, 17:16
Владимир Высоцкий / Концерт в Кёльне
Дисковод: PIONEER DVD-RW  DVR-212D   Adapter: 5  ID: 0
Режим чтения                 : Достоверность
Использование точного потока : Да
Отключение кэша аудио        : Да
Использование указателей C2  : Нет
Коррекция смещения при чтении                     : 48
Способность читать области Lead-in и Lead-out     : Нет
Заполнение пропущенных сэмплов тишиной            : Да
Удаление блоков с тишиной в начале и конце        : Нет
При вычислениях CRC использовались нулевые сэмплы : Да
Интерфейс                                         : Установленный внешний ASPI-интерфейс
Выходной формат : Внутренние WAV-операции
Формат сэмплов  : 44.100 Гц; 16 бит; стерео
TOC извлечённого CD
     Трек |   Старт  | Длительность | Начальный сектор | Конечный сектор
    ---------------------------------------------------------------------
       1  |  0:00.00 |    3:05.54   |           0      |      13928
       2  |  3:05.54 |    1:52.03   |       13929      |      22331
       3  |  4:57.57 |    2:05.63   |       22332      |      31769
       4  |  7:03.45 |    5:53.51   |       31770      |      58295
       5  | 12:57.21 |    3:07.51   |       58296      |      72371
       6  | 16:04.72 |    1:10.04   |       72372      |      77625
       7  | 17:15.01 |    1:36.30   |       77626      |      84855
       8  | 18:51.31 |    0:18.55   |       84856      |      86260
       9  | 19:10.11 |    1:04.50   |       86261      |      91110
      10  | 20:14.61 |    2:41.13   |       91111      |     103198
      11  | 22:55.74 |    3:31.74   |      103199      |     119097
      12  | 26:27.73 |    1:25.21   |      119098      |     125493
      13  | 27:53.19 |    2:07.29   |      125494      |     135047
      14  | 30:00.48 |    1:47.01   |      135048      |     143073
      15  | 31:47.49 |    4:32.36   |      143074      |     163509
      16  | 36:20.10 |    4:28.22   |      163510      |     183631
      17  | 40:48.32 |    2:24.12   |      183632      |     194443
      18  | 43:12.44 |    2:38.45   |      194444      |     206338
      19  | 45:51.14 |    3:00.69   |      206339      |     219907
      20  | 48:52.08 |    1:46.06   |      219908      |     227863
      21  | 50:38.14 |    1:08.61   |      227864      |     233024
      22  | 51:47.00 |    0:35.32   |      233025      |     235681
      23  | 52:22.32 |    4:47.16   |      235682      |     257222
      24  | 57:09.48 |    3:54.13   |      257223      |     274785
Характеристики диапазона извлечения и сообщения об ошибках
Выбранный диапазон
     Имя файла C:\EAC\Владимир Высоцкий - Концерт в Кёльне.wav
     Пиковый уровень 94.4 %
     Качество диапазона 100.0 %
     CRC теста A5118276
     CRC копии A5118276
     Копирование... OK
Ошибок не произошло
AccurateRip: сводка
Трек  1  нет в базе данных
Трек  2  нет в базе данных
Трек  3  нет в базе данных
Трек  4  нет в базе данных
Трек  5  нет в базе данных
Трек  6  нет в базе данных
Трек  7  нет в базе данных
Трек  8  нет в базе данных
Трек  9  нет в базе данных
Трек 10  нет в базе данных
Трек 11  нет в базе данных
Трек 12  нет в базе данных
Трек 13  нет в базе данных
Трек 14  нет в базе данных
Трек 15  нет в базе данных
Трек 16  нет в базе данных
Трек 17  нет в базе данных
Трек 18  нет в базе данных
Трек 19  нет в базе данных
Трек 20  нет в базе данных
Трек 21  нет в базе данных
Трек 22  нет в базе данных
Трек 23  нет в базе данных
Трек 24  нет в базе данных
Ни одного трека нет в базе AccurateRip
Конец отчёта

Индексная карта (non-compilant .cue)

REM GENRE "Chanson"
REM DATE 2004
REM DISCID 580E4F18
REM COMMENT "ExactAudioCopy v0.99pb5"
REM ACCURATERIPID 0033486f-03755798-580e4f18
PERFORMER "Владимир Высоцкий"
TITLE "Концерт в Кёльне"
FILE "Владимир Высоцкий - 2004 - Концерт в Кёльне [580E4F18].flac" WAVE
  TRACK 01 AUDIO
    TITLE "Лекция о международном положении, прочитанная человеком, посаженным на 15 суток за мелкое хулиганство, своим сокамерникам"
    PERFORMER "Владимир Высоцкий"
    INDEX 01 00:00:00
  TRACK 02 AUDIO
    TITLE "Дайте собакам мяса"
    PERFORMER "Владимир Высоцкий"
    INDEX 01 03:05:54
  TRACK 03 AUDIO
    TITLE "Зарисовка из детства"
    PERFORMER "Владимир Высоцкий"
    INDEX 01 04:57:57
  TRACK 04 AUDIO
    TITLE "Баллада о детстве"
    PERFORMER "Владимир Высоцкий"
    INDEX 01 07:03:45
  TRACK 05 AUDIO
    TITLE "Одна научная загадка, или Почему аборигены съели Кука"
    PERFORMER "Владимир Высоцкий"
    INDEX 01 12:57:21
  TRACK 06 AUDIO
    TITLE "Зарисовка о Ленинграде"
    PERFORMER "Владимир Высоцкий"
    INDEX 01 16:04:72
  TRACK 07 AUDIO
    TITLE "Письмо к другу"
    PERFORMER "Владимир Высоцкий"
    INDEX 01 17:15:01
  TRACK 08 AUDIO
    TITLE "'Какой-то вояка заехал в Монако...'"
    PERFORMER "Владимир Высоцкий"
    INDEX 01 18:51:31
  TRACK 09 AUDIO
    TITLE "'Передо мной любой факир - ну просто карлик...'"
    PERFORMER "Владимир Высоцкий"
    INDEX 01 19:10:11
  TRACK 10 AUDIO
    TITLE "Бег иноходца"
    PERFORMER "Владимир Высоцкий"
    INDEX 01 20:14:61
  TRACK 11 AUDIO
    TITLE "Антиалкогольная"
    PERFORMER "Владимир Высоцкий"
    INDEX 01 22:55:74
  TRACK 12 AUDIO
    TITLE "'Что же ты, зараза, бровь себе подбрила...'"
    PERFORMER "Владимир Высоцкий"
    INDEX 01 26:27:73
  TRACK 13 AUDIO
    TITLE "Городской романс"
    PERFORMER "Владимир Высоцкий"
    INDEX 01 27:53:19
  TRACK 14 AUDIO
    TITLE "'Я любил и женщин, и проказы...'"
    PERFORMER "Владимир Высоцкий"
    INDEX 01 30:00:48
  TRACK 15 AUDIO
    TITLE "Смотрины"
    PERFORMER "Владимир Высоцкий"
    INDEX 01 31:47:49
  TRACK 16 AUDIO
    TITLE "Про Джеймса Бонда"
    PERFORMER "Владимир Высоцкий"
    INDEX 01 36:20:10
  TRACK 17 AUDIO
    TITLE "Пародия на плохой детектив"
    PERFORMER "Владимир Высоцкий"
    INDEX 01 40:48:32
  TRACK 18 AUDIO
    TITLE "Жертва телевидения (фрагмент)"
    PERFORMER "Владимир Высоцкий"
    INDEX 01 43:12:44
  TRACK 19 AUDIO
    TITLE "Чужая колея"
    PERFORMER "Владимир Высоцкий"
    INDEX 01 45:51:14
  TRACK 20 AUDIO
    TITLE "'Оплавляются свечи на старинный паркет...'"
    PERFORMER "Владимир Высоцкий"
    INDEX 01 48:52:08
  TRACK 21 AUDIO
    TITLE "Подводная лодка"
    PERFORMER "Владимир Высоцкий"
    INDEX 01 50:38:14
  TRACK 22 AUDIO
    TITLE "'Мы верные испытанные кони...'"
    PERFORMER "Владимир Высоцкий"
    INDEX 01 51:47:00
  TRACK 23 AUDIO
    TITLE "Случай на таможне"
    PERFORMER "Владимир Высоцкий"
    INDEX 01 52:22:32
  TRACK 24 AUDIO
    TITLE "Конец «Охоты на волков», или Охота с вертолётов"
    PERFORMER "Владимир Высоцкий"
    INDEX 01 57:09:48
--
[Профиль] [ЛС]
Кто просматривает тему:

Показать сообщения:    

Текущее время: Сегодня 04:13

Часовой пояс: GMT



Вы не можете начинать темы
Вы не можете отвечать на сообщения
Вы не можете редактировать свои сообщения
Вы не можете удалять свои сообщения
Вы не можете голосовать в опросах
Вы не можете прикреплять файлы к сообщениям
Вы не можете скачивать файлы