(Авторская песня) Владимир Высоцкий - Вот твой билет- 1973 (RCD 2002) [FLAC, image +.cue, lossless]

 
Автор Сообщение

sergej644 ®

Пол:

Стаж: 4 года 11 месяцев

Сообщений: 6045

Откуда: Soviet Union



Награды: Нет

Торрент-статистика

Создавать темы 21-Янв-2016 13:43

[Цитировать]

-Владимир Высоцкий - Вот твой билет- 1973-- Год | Год издания: 1973 | 2002
Страна: USSR
Жанр: Авторская песня
Продолжительность: 00:58:48-Лейбл издания: RCD
Страна-выпуска диска: Russia
Номер по каталогу: RCD 26911-Формат: FLAC
Битрейт аудио: Lossless
Тип рипа: image +.cue
Наличие сканов в содержимом раздачи: да
-

Трэклист


01.Памятник(03:44)
02.Песня О Волге(03:14)
03.Куплеты Гусева(02:14)
04.Баллада О Маленьком Человеке(06:42)
05.Прерванный Полет(04:06)
06.Посадка(04:23)
07.Че-чет-ка(02:43)
08.Баллада Об Оружии(07:10)
09.Баллада О Манекенах(06:37)
10.Баллада О Кокильоне(03:08)
11.Песня Билла Сигера(02:13)
12.Мистерия Хиппи(03:37)
13.Баллада Об Уходе В Рай(03:48)
14.Штормит Весь Вечер И Пока...(02:50)
15.Песня Солодова(02:25)
-

Лог создания рипа

Exact Audio Copy V1.0 beta 3 from 29. August 2011
EAC extraction logfile from 29. February 2012, 18:57
Владимир Высоцкий / Вот Твой Билет (Песни 1973 года)
Used drive  : HL-DT-STDVD-RAM GH22NP20   Adapter: 0  ID: 0
Read mode               : Secure
Utilize accurate stream : Yes
Defeat audio cache      : Yes
Make use of C2 pointers : No
Read offset correction                      : 102
Overread into Lead-In and Lead-Out          : No
Fill up missing offset samples with silence : Yes
Delete leading and trailing silent blocks   : No
Null samples used in CRC calculations       : Yes
Used interface                              : Native Win32 interface for Win NT & 2000
Used output format              : User Defined Encoder
Selected bitrate                : 896 kBit/s
Quality                         : High
Add ID3 tag                     : No
Command line compressor         : D:\ДРОВА\Exact Audio Copy\FLAC\FLAC.EXE
Additional command line options : -6 -V -T "ARTIST=%artist%" -T "TITLE=%title%" -T "ALBUM=%albumtitle%" -T "DATE=%year%" -T "TRACKNUMBER=%tracknr%" -T "GENRE=%genre%" -T "COMMENT=%comment%" -T "BAND=%albuminterpret%" -T "ALBUMARTIST=%albuminterpret%" -T "COMPOSER=%composer%" %haslyrics%--tag-from-file=LYRICS="%lyricsfile%"%haslyrics% -T "DISCNUMBER=%cdnumber%" -T "TOTALDISCS=%totalcds%" -T "TOTALTRACKS=%numtracks%" %hascover%--picture="%coverfile%"%hascover% %source% -o %dest%
TOC of the extracted CD
     Track |   Start  |  Length  | Start sector | End sector
    ---------------------------------------------------------
        1  |  0:00.00 |  3:43.27 |         0    |    16751
        2  |  3:43.27 |  3:13.36 |     16752    |    31262
        3  |  6:56.63 |  2:13.24 |     31263    |    41261
        4  |  9:10.12 |  6:41.61 |     41262    |    71397
        5  | 15:51.73 |  4:05.46 |     71398    |    89818
        6  | 19:57.44 |  4:22.61 |     89819    |   109529
        7  | 24:20.30 |  2:42.34 |    109530    |   121713
        8  | 27:02.64 |  7:09.54 |    121714    |   153942
        9  | 34:12.43 |  6:36.28 |    153943    |   183670
       10  | 40:48.71 |  3:07.52 |    183671    |   197747
       11  | 43:56.48 |  2:12.24 |    197748    |   207671
       12  | 46:08.72 |  3:36.57 |    207672    |   223928
       13  | 49:45.54 |  3:47.47 |    223929    |   241000
       14  | 53:33.26 |  2:49.52 |    241001    |   253727
       15  | 56:23.03 |  2:24.31 |    253728    |   264558
Range status and errors
Selected range
     Filename J:\РАЗДАЧИ\Владимир Высоцкий - Вот твой билет-Песни 1973 года (RCD 2002)\Владимир Высоцкий - Вот Твой Билет (Песни 1973 года).wav
     Peak level 93.5 %
     Extraction speed 2.7 X
     Range quality 100.0 %
     Test CRC 225E3AB7
     Copy CRC 225E3AB7
     Copy OK
No errors occurred
AccurateRip summary
Track  1  accurately ripped (confidence 1)  [0DA63B3C]  (AR v1)
Track  2  accurately ripped (confidence 1)  [3A265E64]  (AR v1)
Track  3  accurately ripped (confidence 1)  [93BC8EF5]  (AR v1)
Track  4  accurately ripped (confidence 1)  [7897AA46]  (AR v1)
Track  5  accurately ripped (confidence 1)  [E6D06A6E]  (AR v1)
Track  6  accurately ripped (confidence 1)  [ABB50190]  (AR v1)
Track  7  accurately ripped (confidence 1)  [F5EDEDB9]  (AR v1)
Track  8  accurately ripped (confidence 1)  [47029642]  (AR v1)
Track  9  accurately ripped (confidence 1)  [48B67B65]  (AR v1)
Track 10  accurately ripped (confidence 1)  [DEA845C1]  (AR v1)
Track 11  accurately ripped (confidence 1)  [C604E0EA]  (AR v1)
Track 12  accurately ripped (confidence 1)  [9326D483]  (AR v1)
Track 13  accurately ripped (confidence 1)  [8E8A5732]  (AR v1)
Track 14  accurately ripped (confidence 1)  [13D66DAF]  (AR v1)
Track 15  accurately ripped (confidence 1)  [3CF9C093]  (AR v1)
All tracks accurately ripped
End of status report

Индексная карта (non-compilant .cue)

REM GENRE Acoustic
REM DATE 2002
REM DISCID D40DC70F
REM COMMENT "ExactAudioCopy v1.0b3"
PERFORMER "Владимир Высоцкий"
TITLE "Вот Твой Билет (Песни 1973 года)"
FILE "Владимир Высоцкий - Вот Твой Билет (Песни 1973 года).flac" WAVE
  TRACK 01 AUDIO
    TITLE "Памятник"
    PERFORMER "Владимир Высоцкий"
    INDEX 01 00:00:00
  TRACK 02 AUDIO
    TITLE "Песня О Волге"
    PERFORMER "Владимир Высоцкий"
    INDEX 00 03:40:27
    INDEX 01 03:43:27
  TRACK 03 AUDIO
    TITLE "Куплеты Гусева"
    PERFORMER "Владимир Высоцкий"
    INDEX 00 06:53:63
    INDEX 01 06:56:63
  TRACK 04 AUDIO
    TITLE "Баллада О Маленьком Человеке"
    PERFORMER "Владимир Высоцкий"
    INDEX 00 09:07:12
    INDEX 01 09:10:12
  TRACK 05 AUDIO
    TITLE "Прерванный Полет"
    PERFORMER "Владимир Высоцкий"
    INDEX 00 15:48:73
    INDEX 01 15:51:73
  TRACK 06 AUDIO
    TITLE "Посадка"
    PERFORMER "Владимир Высоцкий"
    INDEX 00 19:54:44
    INDEX 01 19:57:44
  TRACK 07 AUDIO
    TITLE "Че-чет-ка"
    PERFORMER "Владимир Высоцкий"
    INDEX 00 24:17:30
    INDEX 01 24:20:30
  TRACK 08 AUDIO
    TITLE "Баллада Об Оружии"
    PERFORMER "Владимир Высоцкий"
    INDEX 00 26:59:64
    INDEX 01 27:02:64
  TRACK 09 AUDIO
    TITLE "Баллада О Манекенах"
    PERFORMER "Владимир Высоцкий"
    INDEX 00 34:09:43
    INDEX 01 34:12:43
  TRACK 10 AUDIO
    TITLE "Баллада О Кокильоне"
    PERFORMER "Владимир Высоцкий"
    INDEX 00 40:45:71
    INDEX 01 40:48:71
  TRACK 11 AUDIO
    TITLE "Песня Билла Сигера"
    PERFORMER "Владимир Высоцкий"
    INDEX 00 43:53:48
    INDEX 01 43:56:48
  TRACK 12 AUDIO
    TITLE "Мистерия Хиппи"
    PERFORMER "Владимир Высоцкий"
    INDEX 00 46:05:72
    INDEX 01 46:08:72
  TRACK 13 AUDIO
    TITLE "Баллада Об Уходе В Рай"
    PERFORMER "Владимир Высоцкий"
    INDEX 00 49:42:54
    INDEX 01 49:45:54
  TRACK 14 AUDIO
    TITLE "Штормит Весь Вечер И Пока..."
    PERFORMER "Владимир Высоцкий"
    INDEX 00 53:30:26
    INDEX 01 53:33:26
  TRACK 15 AUDIO
    TITLE "Песня Солодова"
    PERFORMER "Владимир Высоцкий"
    INDEX 00 56:20:03
    INDEX 01 56:23:03
--
[Профиль] [ЛС]
Кто просматривает тему:

Показать сообщения:    

Текущее время: Сегодня 07:59

Часовой пояс: GMT



Вы не можете начинать темы
Вы не можете отвечать на сообщения
Вы не можете редактировать свои сообщения
Вы не можете удалять свои сообщения
Вы не можете голосовать в опросах
Вы не можете прикреплять файлы к сообщениям
Вы не можете скачивать файлы