Вкус жизни / No Reservations (2007) BDRip 720p | D,A

 
Автор Сообщение

sergej644 ®

Пол:

Стаж: 4 года 11 месяцев

Сообщений: 6042

Откуда: Soviet Union



Награды: Нет

Торрент-статистика

Создавать темы 30-Янв-2015 23:44

[Цитировать]

Название: Вкус жизни
Оригинальное название: No Reservations
Год выпуска: 2007
Жанр: Драма, мелодрама, комедия
Выпущено: США, Австралия, Castle Rock Entertainment, Storefront Pictures, Village Roadshow Pictures
Режиссер: Скотт Хикс
В ролях: Кэтрин Зета-Джонс, Аарон Экхарт, Эбигейл Бреслин, Патришия Кларксон, Дженни Уэйд, Боб Бэлабан, Брайан Ф. О’Бирн, Лили Рэйб, Эрик Сильвер, Ария Барейкис
Перевод: Дублированный, Авторский
Сюжет фильма
Кейт Армстронг, профессиональный шеф-повар, подходит к вопросу приготовления пищи с такой ответственностью и самозабвением, что не обращает внимания ни на что вокруг. Но после внезапной трагедии, произошедшей с семьей ее родственников, она становится опекуншей осиротевшей племянницы Зои, и вся жизнь преуспевающей до недавнего времени женщины кардинально меняется. Но, как известно, беда не приходит одна: еще Кейт вынуждена уживаться с Ником Палмером, самоуверенным типом и новым су-шефом их ресторана. Но поскольку соперничество перерастает в любовный роман, Кейт предстоит научиться выражать свои эмоции за пределами кухни, если она действительно хочет наладить отношения с Зои и быть счастлива с Ником.

Файл
Качество: BDRip 720p (исходник Blu-ray Remux)
Видео: 1280x534, 4 335 Кбит/сек, 23.976 кадр/сек, AVC, x264, High@L4.1, 0.265 Бит/[Пиксели*Кадры], 2pass
Аудио 1: AC3 5.1 48 kHz 384 kbps - Дублированный
Аудио 2: AC3 5.1 48 kHz 640 kbps - Авторский - Ю.Немахов
Аудио 3: AC3 5.1 48 kHz 640 kbps - English
Субтитры: Russian, English
Продолжительность: 01:44:18Автор рипа: Сообщество:

Скриншоты

[

MediaInfo

Format : Matroska
Format version : Version 2
File size : 4.37 GiB
Duration : 1h 44mn
Overall bit rate : 5 997 Kbps
Movie name : Vkus zhizni.(2007).BDRip.720p.[denis100]
Encoded date : UTC 2014-07-24 05:55:37
Writing application : mkvmerge v5.8.0 ('No Sleep / Pillow') built on Sep 2 2012 15:37:04
Writing library : libebml v1.2.3 + libmatroska v1.3.0
Video
ID : 1
Format : AVC
Format/Info : Advanced Video Codec
Format profile : High@L4.1
Format settings, CABAC : Yes
Format settings, ReFrames : 11 frames
Codec ID : V_MPEG4/ISO/AVC
Duration : 1h 44mn
Bit rate : 4 335 Kbps
Width : 1 280 pixels
Height : 534 pixels
Display aspect ratio : 2.40:1
Frame rate mode : Constant
Frame rate : 23.976 fps
Color space : YUV
Chroma subsampling : 4:2:0
Bit depth : 8 bits
Scan type : Progressive
Bits/(Pixel*Frame) : 0.265
Stream size : 3.07 GiB (70%)
Title : Vkus zhizni.(2007).BDRip.720p.[denis100]
Writing library : x264 core 138 r2358 9e941d1
Encoding settings : cabac=1 / ref=11 / deblock=1:-3:-3 / analyse=0x3:0x133 / me=umh / subme=11 / psy=1 / psy_rd=1.00:0.15 / mixed_ref=1 / me_range=32 / chroma_me=1 / trellis=2 / 8x8dct=1 / cqm=0 / deadzone=21,11 / fast_pskip=0 / chroma_qp_offset=-3 / threads=6 / lookahead_threads=1 / sliced_threads=0 / nr=0 / decimate=1 / interlaced=0 / bluray_compat=0 / constrained_intra=0 / bframes=6 / b_pyramid=2 / b_adapt=2 / b_bias=0 / direct=3 / weightb=1 / open_gop=0 / weightp=2 / keyint=240 / keyint_min=23 / scenecut=40 / intra_refresh=0 / rc_lookahead=40 / rc=2pass / mbtree=1 / bitrate=4335 / ratetol=1.0 / qcomp=0.60 / qpmin=0 / qpmax=69 / qpstep=4 / cplxblur=20.0 / qblur=0.5 / ip_ratio=1.40 / aq=2:0.90
Language : English
Default : Yes
Forced : No
Audio #1
ID : 2
Format : AC-3
Format/Info : Audio Coding 3
Mode extension : CM (complete main)
Format settings, Endianness : Big
Codec ID : A_AC3
Duration : 1h 44mn
Bit rate mode : Constant
Bit rate : 384 Kbps
Channel(s) : 6 channels
Channel positions : Front: L C R, Side: L R, LFE
Sampling rate : 48.0 KHz
Bit depth : 16 bits
Compression mode : Lossy
Stream size : 287 MiB (6%)
Title : Дублированный
Language : Russian
Default : Yes
Forced : No
Audio #2
ID : 3
Format : AC-3
Format/Info : Audio Coding 3
Mode extension : CM (complete main)
Format settings, Endianness : Big
Codec ID : A_AC3
Duration : 1h 44mn
Bit rate mode : Constant
Bit rate : 640 Kbps
Channel(s) : 6 channels
Channel positions : Front: L C R, Side: L R, LFE
Sampling rate : 48.0 KHz
Bit depth : 16 bits
Compression mode : Lossy
Stream size : 478 MiB (11%)
Title : Авторский - Ю.Немахов
Language : Russian
Default : No
Forced : No
Audio #3
ID : 4
Format : AC-3
Format/Info : Audio Coding 3
Mode extension : CM (complete main)
Format settings, Endianness : Big
Codec ID : A_AC3
Duration : 1h 44mn
Bit rate mode : Constant
Bit rate : 640 Kbps
Channel(s) : 6 channels
Channel positions : Front: L C R, Side: L R, LFE
Sampling rate : 48.0 KHz
Bit depth : 16 bits
Compression mode : Lossy
Stream size : 478 MiB (11%)
Title : English
Language : English
Default : No
Forced : No
Text #1
ID : 5
Format : UTF-8
Codec ID : S_TEXT/UTF8
Codec ID/Info : UTF-8 Plain Text
Title : Russian
Language : Russian
Default : No
Forced : No
Text #2
ID : 6
Format : UTF-8
Codec ID : S_TEXT/UTF8
Codec ID/Info : UTF-8 Plain Text
Title : English
Language : English
Default : No
Forced : No

x264

x264 [info]: frame I:47 Avg QP:13.87 size:140599
x264 [info]: frame P:689 Avg QP:17.07 size: 44390
x264 [info]: frame B:2440 Avg QP:19.37 size: 13879
[Профиль] [ЛС]
Кто просматривает тему:

Показать сообщения:    

Текущее время: Сегодня 14:23

Часовой пояс: GMT



Вы не можете начинать темы
Вы не можете отвечать на сообщения
Вы не можете редактировать свои сообщения
Вы не можете удалять свои сообщения
Вы не можете голосовать в опросах
Вы не можете прикреплять файлы к сообщениям
Вы не можете скачивать файлы