Вишнёвый табак / Kirsitubakas (Андрес Маймик / Andres Maimik, Катрин Маймик / Katrin Maimik) [2014, Эстония, Романтическая мелодрама, DVDRip] VO (PashaUp) + Original Est

 
Автор Сообщение

TorrentFilm ®

Пол:

Стаж: 2 года

Сообщений: 7741



Награды: Нет

Торрент-статистика

Создавать темы 31-Дек-2014 00:00

[Цитировать]

Вишнёвый табак / Kirsitubakas
Страна: Эстония
Жанр: Романтическая мелодрама
Год выпуска: 2014
Продолжительность: 01:32:23
Перевод: Одноголосый (закадровый) [PashaUp]
Оригинальная аудиодорожка: эстонская
Cубтитры: нет
Режиссер: Андрес Маймик / Andres Maimik, Катрин Маймик / Katrin Maimik
В ролях: Маарья Якобсон, Вийу Маймик, Гетер Мересема, Герд Раудсеп, Анне Рееманн
Описание: Семнадцатилетняя Лаура живет в маленьком городке и испытывает жуткую скуку. Ей действует на нервы мать, парни ее возраста кажутся девушке недалекими, а все развлечения — детскими. Однажды ее подружка Мерит уговаривает Лауру пойти в поход, организованный знатоком местной природы Йозепом. Поначалу между замкнутой девочкой и экстравагантным мужчиной складываются напряженные отношения. Но вскоре Лаура признается самой себе, что неотесанность Йозепа волнует ее…

Сэмпл
Качество: DVDRip
Контейнер: AVI
Видео: 720x304 (2.37:1), 25 fps, XviD build 64 ~1780 kbps avg, 0.33 bit/pixel
Аудио 1 : 48 kHz, AC3 Dolby Digital, 2/0 (L,R) ch, ~224 kbps |Rus
Аудио 2 : 48 kHz, MPEG Layer 3, 2 ch, ~224.00 kbps avg |Est

MI

Общее
Полное имя : C:\Users\Пользователь\Downloads\Kirsitubakas.2014.L1.DVDRip.avi
Формат : AVI
Формат/Информация : Audio Video Interleave
Размер файла : 1,45 Гбайт
Продолжительность : 1 ч. 32 м.
Общий поток : 2244 Кбит/сек
Программа кодирования : VirtualDubMod 1.5.10.3 | www.virtualdub-fr.org || (build 2550/release)
Библиотека кодирования : VirtualDubMod build 2550/release
Видео
Идентификатор : 0
Формат : MPEG-4 Visual
Профиль формата : Advanced Simple@L5
Параметр BVOP формата : 1
Параметр QPel формата : Нет
Параметр GMC формата : Без точки перехода
Параметр матрицы формата : Default (H.263)
Идентификатор кодека : XVID
Идентификатор кодека/Подсказка : XviD
Продолжительность : 1 ч. 32 м.
Битрейт : 1782 Кбит/сек
Ширина : 720 пикселей
Высота : 304 пикселя
Соотношение сторон : 2,35:1
Частота кадров : 25,000 кадров/сек
Цветовое пространство : YUV
Субдискретизация насыщенности : 4:2:0
Битовая глубина : 8 бит
Тип развёртки : Прогрессивная
Метод сжатия : С потерями
Бит/(Пиксели*Кадры) : 0.326
Размер потока : 1,15 Гбайт (79%)
Библиотека кодирования : XviD 64
Аудио #1
Идентификатор : 1
Формат : AC-3
Формат/Информация : Audio Coding 3
Расширение режима : CM (complete main)
Параметр Endianness формата : Big
Идентификатор кодека : 2000
Продолжительность : 1 ч. 32 м.
Вид битрейта : Постоянный
Битрейт : 224 Кбит/сек
Каналы : 2 канала
Расположение каналов : Front: L R
Частота : 48,0 КГц
Битовая глубина : 16 бит
Метод сжатия : С потерями
Задержка видео : 14 мс.
Размер потока : 148 Мбайт (10%)
Выравнивание : Разделение по промежуткам
Продолжительность промежутка : 40 мс. (1,00 видеокадр)
Время предзагрузки промежутка : 500 мс.
Аудио #2
Идентификатор : 2
Формат : MPEG Audio
Версия формата : Version 1
Профиль формата : Layer 3
Режим : Joint stereo
Расширение режима : MS Stereo
Идентификатор кодека : 55
Идентификатор кодека/Подсказка : MP3
Продолжительность : 1 ч. 32 м.
Вид битрейта : Постоянный
Битрейт : 224 Кбит/сек
Каналы : 2 канала
Частота : 48,0 КГц
Метод сжатия : С потерями
Размер потока : 148 Мбайт (10%)
Выравнивание : Разделение по промежуткам
Продолжительность промежутка : 40 мс. (1,00 видеокадр)
Время предзагрузки промежутка : 500 мс.
Библиотека кодирования : LAME3.98.4

Скриншоты

[Профиль] [ЛС]
Показать сообщения:    

Текущее время: Сегодня 13:51

Часовой пояс: GMT



Вы не можете начинать темы
Вы не можете отвечать на сообщения
Вы не можете редактировать свои сообщения
Вы не можете удалять свои сообщения
Вы не можете голосовать в опросах
Вы не можете прикреплять файлы к сообщениям
Вы не можете скачивать файлы