Вихри враждебные (1953) DVDRip от New-Team

 
Автор Сообщение

Russian Mafia ®

Пол:

Стаж: 1 год 8 месяцев

Сообщений: 4246



Награды: 10 (Подробнее)

Top Releaser 4 (Количество: 1) Top Releaser 2 (Количество: 1) Top Releaser 3 (Количество: 1)
Торрент-статистика

Создавать темы 22-Мар-2016 08:24

[Цитировать]

Страна: СССР
Производство: Мосфильм
Жанр: драма, биография
Год выпуска: 1953
Продолжительность: 01:36:52
Перевод: Не требуется
Cубтитры: нет
Оригинальная аудиодорожка: русский
Режиссер: Михаил Калатозов
В ролях:
Владимир Емельянов, Михаил Кондратьев, Михаил Геловани, Леонид Любашевский, Владимир Соловьёв, Иван Любезнов, Алла Ларионова, Виктор Авдюшко, Георгий Юматов, Владимир Борискин, Игорь Безяев, Сергей Лукьянов, Сергей Ромоданов, Пётр Мухин, Андрей Попов, Николай Гриценко, Александр Хохлов, Григорий Кириллов, Олег Жаков, Антоний Ходурский, Алексей Коротюков...
Полный список актёров
Описание:
О первых годах становления Советской власти, о жизни и деятельности Ф.Дзержинского в 1918-1925 годах.
Июль 1918 года. Нпачинается левоэсеровский мятеж. Убит германский посол Мирбах. Феликс Дзержинский в одиночку отправляется в штаб левых эсеров и анархистов. Ему удаётся склонить на свою сторону простых солдат и матросов, участников мятежа. Они сами расправляются со своими главарями. Арестованы иностранные послы, организовавшие заговор, возглавленный британским посланником Локкартом.
В 1921 году партия направляет Дзержинского на борьбу с беспризорщиной. Узнав, где скрываются в Москве безспризорники по ночам, Дзержинский один отправлялся в их притон и быстро и легко овладевал доверием ребят. Уже после десятиминутного разговора эти дети голода и лишений, войны и разрухи, приученные своей жизнью к чему угодно, только не к доверчивости, устремлялись за Дзержинским к зданию ВЧК. Правда, до дверей доходили не все, но уж те, кто оставался, немедленно и прочно вступали на верную дорогу и приводили на неё остальных.
1925 год. Бывшие беспризорники, закончив учёбу, отправляются на строительство Югостали, крупнейшего промышленного комбината на Украине. В руководство предприятия пробрались враги, они всячески тормозят строительство...
Фильм закончили уже после смерти Сталина и положили на полку. В 1956 году картину перемонтировали. Из неё изъяли сцену, в которой комсомольцев, уезжающих работать на Югосталь, напутствует Сталин. Сталина заменили Дзержинским. Но получилась маленькая накладка. Такого всеобщего порыва, как показано в фильме, Дзержинский, конечно, вызывать не мог. Об этом случае вспоминала актриса Алла Ларионова.- -Источник: DVD9 R5
Качество видео: DVDRip
Формат видео: AVI
Видео: 576x432 (4:3), 25 fps, XviD ~ 937 kbps avg, 0.151 bit/pixel
Аудио: 48 kHz, MP3 2.0, 128 kbps

MediaInfo

Общее
Полное имя : Vihri.vrazhdebnye.1953.DVDRip-745_[New-team]_by_AVP_Studio.avi
Формат : AVI
Формат/Информация : Audio Video Interleave
Размер файла : 744 Мбайт
Продолжительность : 1 ч. 36 м.
Общий поток : 1074 Кбит/сек
Программа кодирования : VirtualDubMod 1.5.10.3 | www.virtualdub-fr.org || (build 2550/release)
Библиотека кодирования : VirtualDubMod build 2550/release
Видео
Идентификатор : 0
Формат : MPEG-4 Visual
Профиль формата : Advanced Simple@L5
Параметр BVOP формата : 1
Параметр QPel формата : Нет
Параметр GMC формата : Без точки перехода
Параметр матрицы формата : Выборочная
Идентификатор кодека : XVID
Идентификатор кодека/Подсказка : XviD
Продолжительность : 1 ч. 36 м.
Битрейт : 937 Кбит/сек
Ширина : 576 пикселей
Высота : 432 пикселя
Соотношение сторон : 4:3
Частота кадров : 25,000 кадров/сек
Цветовое пространство : YUV
Субдискретизация насыщенности : 4:2:0
Битовая глубина : 8 бит
Тип развёртки : Прогрессивная
Метод сжатия : С потерями
Бит/(Пиксели*Кадры) : 0.151
Размер потока : 649 Мбайт (87%)
Библиотека кодирования : XviD 1.2.1 (UTC 2008-12-04)
Аудио
Идентификатор : 1
Формат : MPEG Audio
Версия формата : Version 1
Профиль формата : Layer 3
Идентификатор кодека : 55
Идентификатор кодека/Подсказка : MP3
Продолжительность : 1 ч. 36 м.
Вид битрейта : Постоянный
Битрейт : 128 Кбит/сек
Каналы : 2 канала
Частота : 48,0 КГц
Метод сжатия : С потерями
Размер потока : 88,7 Мбайт (12%)
Выравнивание : Соединение по промежуткам
Продолжительность промежутка : 40 мс. (1,00 видеокадр)
Время предзагрузки промежутка : 504 мс.
Библиотека кодирования : LAME3.99r
Настройки программы : -m s -V 4 -q 2 -lowpass 17 -b 128

Скриншоты

[Профиль] [ЛС]
Показать сообщения:    

Текущее время: Сегодня 00:39

Часовой пояс: GMT



Вы не можете начинать темы
Вы не можете отвечать на сообщения
Вы не можете редактировать свои сообщения
Вы не можете удалять свои сообщения
Вы не можете голосовать в опросах
Вы не можете прикреплять файлы к сообщениям
Вы не можете скачивать файлы