Вирус Андромеда / Штамм Андромеда / The Andromeda Strain (2008) HDRip

 
Автор Сообщение

sergej644 ®

Пол:

Стаж: 4 года 11 месяцев

Сообщений: 6037

Откуда: Soviet Union



Награды: Нет

Торрент-статистика

Создавать темы 27-Ноя-2014 23:08

[Цитировать]

-Вирус Андромеда / Штамм Андромеда / The Andromeda Strain (2008) HDRip- Год выпуска: 2008
Производство: США
Жанр: Фантастика, Ужасы-Описание фильма:
Американский спутник падает неподалеку от одного городка в штате Юта, выпуская на свободу смертельный вирус, который убивает всех горожан за исключением двоих — ребенка и старика. Пока военные пытаются изолировать зону бедствия, команда лучших ученых в подземной лаборатории пытается раскрыть загадку смертельного инопланетного вируса, которому присвоено кодовое имя Андромеда. На то, чтобы спасти мир, у них осталось всего несколько дней. Отсчет начался…
Режиссер: Микаэл Саломон
Актеры: Бенджамин Брэтт, Эрик МакКормак, Шэйн Джонс, Йен Томпсон, Криста Миллер, Дэниэл Дэй Ким, Виола Дэвис, Джастин Луис, Бэрри Флэтмэн, Тед Уиттэлл, Тед Атертон, Том МакБет, Рик Шродер, Андре Брогер, Джесси Мосс, Магда Апанович, Курт Макс Рунте, Курт Эванс, Пану, Анна Галвин, Михал Суханэк, Джонатан Поттс, Адриан Холмс, Кэндас Черчилль, Ава Саломон, Эмили Холмс-Перевод: Многоголосый закадровый
Язык субтитров: отсутствуют-
Дата мировой премьеры: 26 мая 2008
Дата выхода DVD релиза: 10 февраля 2009, «Юниверсал Пикчерс Рус»-Продолжительность: 02:46:32
Качество видео: HDRip
Видео: MPEG4, XviD, 640x360 (16:9), 25.000 fps, 1 125 Kbps (0.195 bit/pixel)
Аудио: MP3, 48.0 KHz, 2 ch, 128 Kbps, CBR

MediaInfo:

Формат : AVI
Формат/Информация : Audio Video Interleave
Размер файла : 1,47 Гбайт
Продолжительность : 2 ч. 46 м.
Общий поток : 1262 Кбит/сек
Программа кодирования : VirtualDubMod 1.5.10.3 | www.virtualdub-fr.org || (build 2550/release)
Библиотека кодирования : VirtualDubMod build 2550/release
Видео
Идентификатор : 0
Формат : MPEG-4 Visual
Профиль формата : Advanced Simple@L5
Параметр BVOP формата : 1
Параметр QPel формата : Нет
Параметр GMC формата : Без точки перехода
Параметр матрицы формата : Default (MPEG)
Идентификатор кодека : XVID
Идентификатор кодека/Подсказка : XviD
Продолжительность : 2 ч. 46 м.
Битрейт : 1125 Кбит/сек
Ширина : 640 пикселей
Высота : 360 пикселей
Соотношение сторон : 16:9
Частота кадров : 25,000 кадров/сек
Цветовое пространство : YUV
Субдискретизация насыщенности : 4:2:0
Битовая глубина : 8 бит
Тип развёртки : Прогрессивная
Метод сжатия : С потерями
Бит/(Пиксели*Кадры) : 0.195
Размер потока : 1,31 Гбайт (89%)
Библиотека кодирования : XviD 73
Аудио
Идентификатор : 1
Формат : MPEG Audio
Версия формата : Version 1
Профиль формата : Layer 3
Идентификатор кодека : 55
Идентификатор кодека/Подсказка : MP3
Продолжительность : 2 ч. 46 м.
Вид битрейта : Постоянный
Битрейт : 128 Кбит/сек
Каналы : 2 канала
Частота : 48,0 КГц
Метод сжатия : С потерями
Размер потока : 152 Мбайт (10%)
Выравнивание : Соединение по промежуткам
Продолжительность промежутка : 40 мс. (1,00 видеокадр)
Время предзагрузки промежутка : 504 мс.
Библиотека кодирования : LAME3.99r
Настройки программы : -m s -V 4 -q 2 -lowpass 17 -b 128
Скриншоты:
-Время раздачи: с 12:00 до 18:30 до 3-х скачавших
[Профиль] [ЛС]

Создавать темы 06-Авг-2015 22:56 (спустя 8 месяцев 8 дней)

Топик был перенесен из форума Фильмы до 2014 года в форум Фильмы до 2012 года
sergej644
 

Создавать темы 12-Июн-2016 08:51 (спустя 1 год 6 месяцев)

Топик был перенесен из форума Фильмы 2011 года в форум Фильмы 2006-2008 года
Russian Mafia
 
Показать сообщения:    

Текущее время: Сегодня 15:58

Часовой пояс: GMT



Вы не можете начинать темы
Вы не можете отвечать на сообщения
Вы не можете редактировать свои сообщения
Вы не можете удалять свои сообщения
Вы не можете голосовать в опросах
Вы не можете прикреплять файлы к сообщениям
Вы не можете скачивать файлы