Винтик и Шпунтик - Весёлые мастера (Пётр Носов) [1960 г., короткометражный мультфильм, DVB]

 
Автор Сообщение

TorrentFilm ®

Пол:

Стаж: 2 года

Сообщений: 7741



Награды: Нет

Торрент-статистика

Создавать темы 03-Янв-2016 00:04

[Цитировать]

Винтик и Шпунтик - Весёлые мастера
Жанр: короткометражный мультфильм
Год выпуска: 1960
Продолжительность: 00:18:54
Режиссёр: Пётр Носов
Описание: мультфильм о том, как умельцы Винтик и Шпунтик к любому делу подходили творчески и со смекалкой. Чтобы облегчить себе уборку помещений они собрали пылесос. Правда, чуть-чуть не рассчитали мощность: после уборки их товарищи не могли найти свою одежду и вещи - все они оказались в пылесосе. Но весёлые мастера не унывают и, немного поработав в свой мастерской, приспосабливают пылесос для сбора овощей и ягод ...
Доп. информация: по мотивам книги Н.Носова "Веселые мастера"

Трансляция спутникового канала: "Карусель"
Качество видео: DVB
Формат видео: MPEG-PS
Видео: MPEG2 Video, 720x576, 25 fps, 3900 kbps
Аудио: MPEG Audio, 2 сh, 48 kHz, 192 kbps

MediaInfo

General
Complete name : D:\Винтик и Шпунтик весёлые мастера. (1960)_DVB by SLuMeP.mpg
Format : MPEG-PS
File size : 567 MiB
Duration : 18mn 54s
Overall bit rate mode : Variable
Overall bit rate : 4 188 Kbps
Video
ID : 224 (0xE0)
Format : MPEG Video
Format version : Version 2
Format profile : Main@Main
Format settings, BVOP : Yes
Format settings, Matrix : Custom
Format settings, GOP : M=3, N=12
Duration : 18mn 54s
Bit rate mode : Variable
Bit rate : 3 912 Kbps
Maximum bit rate : 5 000 Kbps
Width : 720 pixels
Height : 576 pixels
Display aspect ratio : 4:3
Frame rate : 25.000 fps
Standard : PAL
Color space : YUV
Chroma subsampling : 4:2:0
Bit depth : 8 bits
Scan type : Interlaced
Scan order : Top Field First
Compression mode : Lossy
Bits/(Pixel*Frame) : 0.377
Time code of first frame : 00:00:00:00
Time code source : Group of pictures header
Stream size : 529 MiB (93%)
Audio
ID : 192 (0xC0)
Format : MPEG Audio
Format version : Version 1
Format profile : Layer 2
Duration : 18mn 54s
Bit rate mode : Constant
Bit rate : 192 Kbps
Channel(s) : 2 channels
Sampling rate : 48.0 KHz
Compression mode : Lossy
Stream size : 26.0 MiB (5%)

Скриншоты

[Профиль] [ЛС]
Показать сообщения:    

Текущее время: Сегодня 08:15

Часовой пояс: GMT



Вы не можете начинать темы
Вы не можете отвечать на сообщения
Вы не можете редактировать свои сообщения
Вы не можете удалять свои сообщения
Вы не можете голосовать в опросах
Вы не можете прикреплять файлы к сообщениям
Вы не можете скачивать файлы