Винтик и Шпунтик - весёлые мастера (Петр Носов) [1960, Рисованный мультфильм, SATRip]

 
Автор Сообщение

TorrentFilm ®

Пол:

Стаж: 1 год 11 месяцев

Сообщений: 7741



Награды: Нет

Торрент-статистика

Создавать темы 01-Янв-2016 00:15

[Цитировать]

Винтик и шпунтик- весёлые мастера
Страна: СССР
Жанр: Рисованный мультфильм
Продолжительность: 00:18:54
Год выпуска: 1960
Русские субтитры: нет
Режиссёр: Петр Носов
Описание: Экранизация современной сказки Н.Носова о человечках-инструментах Винтике и Шпунтике, которые умело решают разные технические трудности. По мотивам книги Н.Носова "Веселые мастера
Доп. информация: «Союзмультфильм»
Сценарий:Н.Носов
Художник-постановщик:Л.Модель,В.Рябчиков
Композитор:М.Меерович
Оператор:Н.Климова
Релиз группы:
Исходник для рипа любезно представлен SLuMeP
Качество: SATRip
Формат: AVI
Видео: 704x528 (1.33:1), 25 fps, XviD build 65 ~2100 kbps avg, 0.23 bit/pixel
Аудио: 48 kHz, AC3 Dolby Digital, 1/0 (C) ch, ~192.00 kbps avg
Субтитры: нет

Подробные технические данные

Format : AVIFormat/Info : Audio Video InterleaveFile size : 311 MiBDuration : 18mn 54sOverall bit rate : 2 302 KbpsWriting application : VirtualDubModRus 1.5.10.2 (build 2542/release)Copyright : Rutracker.orgComment : SATRip by dvdss
VideoID : 0Format : MPEG-4 VisualFormat profile : Advanced Simple@L5Format settings, BVOP : 2Format settings, QPel : NoFormat settings, GMC : No warppointsFormat settings, Matrix : CustomCodec ID : XVIDCodec ID/Hint : XviDDuration : 18mn 54sBit rate : 2 101 KbpsWidth : 704 pixelsHeight : 528 pixelsDisplay aspect ratio : 5:4Original display aspect ratio : 4:3Frame rate : 25.000 fpsColor space : YUVChroma subsampling : 4:2:0Bit depth : 8 bitsScan type : ProgressiveCompression mode : LossyBits/(Pixel*Frame) : 0.226Stream size : 284 MiB (91%)Writing library : XviD 65
AudioID : 1Format : AC-3Format/Info : Audio Coding 3Mode extension : CM (complete main)Format settings, Endianness : BigCodec ID : 2000Duration : 18mn 54sBit rate mode : ConstantBit rate : 192 KbpsChannel(s) : 1 channelChannel positions : Front: CSampling rate : 48.0 KHzBit depth : 16 bitsCompression mode : LossyStream size : 26.0 MiB (8%)Alignment : Split accross interleavesInterleave, duration : 40 ms (1.00 video frame)Interleave, preload duration : 500 ms
[Профиль] [ЛС]
Показать сообщения:    

Текущее время: Сегодня 14:00

Часовой пояс: GMT



Вы не можете начинать темы
Вы не можете отвечать на сообщения
Вы не можете редактировать свои сообщения
Вы не можете удалять свои сообщения
Вы не можете голосовать в опросах
Вы не можете прикреплять файлы к сообщениям
Вы не можете скачивать файлы