Виноват Фидель / La faute a Fidel (Жюли Гаврас / Julie Gavras) [2006, Италия, Франция, историческая драма, экранизация, DVB] Original (Fre) + Sub (rus)

 
Автор Сообщение

TorrentFilm ®

Пол:

Стаж: 2 года

Сообщений: 7741



Награды: Нет

Торрент-статистика

Создавать темы 31-Дек-2014 00:00

[Цитировать]

Виноват Фидель
La faute à Fidel- Страна: Италия, Франция
Жанр: историческая драма, экранизация
Год выпуска: 2006
Продолжительность: 01:34:17
Перевод: Субтитры (перевод М.Кузиной, Éclair Group)
Cубтитры: русские
Оригинальная аудиодорожка: французский
Режиссер: Жюли Гаврас / Julie GavrasВ ролях: Нина Кервэль-Баи / Nina Kervel-Bey (Anna de la Mesa), Жюли Депардье / Julie Depardieu (Marie de la Mesa), Стефано Аккорси / Stefano Accorsi (Fernando de la Mesa), Мари Кремер / Marie Kremer (Isabelle), Рафаэль Персонас / Raphaël Personnaz (Mathieu)
Описание: По роману Домитильи Каламаи / Domitilla Calamai "Tutta colpa di Fidel" (2006). Композитор Арман Амар / Armand Amar.
Париж, начало 1970-х. В жизни 9-летней героини происходят большие перемены: ее родители стали радикальными политическими активистами.
Доп. информация: TV5MONDE DVB-S
Награды: номинация на Гран-при в категории "Драматический фильм" (Программа "Мировое кино") Sundance Film Festival 2007; премия Michel d'Ornano за лучший режиссерский дебют на Deauville Film Festival 2006; приз за лучший фильм Festival du film de la Réunion 2006; приз за лучший художественный фильм Festival international du film d'histoire de Pessac 2006; номинация на Гран-при Cinema Brazil 2008 за лучший иностранный фильм.

Качество видео: DVB
Формат видео: MKV
Видео: MPEG Video 2, 704x576@1024x576 (16:9), 25 fps, ~2281 kbps avg, 0.225 bit/pixel
Аудио: Французский (MPEG Audio 2, 2 ch, 48 kHz, ~192.00 kbps avg)
Формат субтитров: hardsub (неотключаемые)

MediaInfo

ОбщееУникальный идентификатор : 244756193513432054874597333242402378653 (0xB8225405F9AC1B218D0B2DF09715139D)Полное имя : E:\My Torrents 2\[apreder]La_faute_a_Fidel(2006)DVB.mkvФормат : MatroskaВерсия формата : Version 2Размер файла : 1,66 ГбайтПродолжительность : 1 ч. 34 м.Режим общего битрейта : ПеременныйОбщий поток : 2523 Кбит/секДата кодирования : UTC 2014-12-21 17:35:03Программа кодирования : mkvmerge v7.4.0 ('Circles') 64bit built on Dec 12 2014 12:19:56Библиотека кодирования : libebml v1.3.0 + libmatroska v1.4.1
ВидеоИдентификатор : 1Формат : MPEG VideoВерсия формата : Version 2Профиль формата : Main@MainПараметр BVOP формата : ДаПараметр матрицы формата : ВыборочнаяПараметр GOP формата : M=3, N=15Format_Settings_PictureStructure : FrameИдентификатор кодека : V_MPEG2Идентификатор кодека/Информация : MPEG 1 or 2 VideoПродолжительность : 1 ч. 34 м.Вид битрейта : ПеременныйБитрейт : 2281 Кбит/секШирина : 704 пикселяВысота : 576 пикселейСоотношение сторон : 16:9Режим частоты кадров : ПостоянныйЧастота кадров : 25,000 кадров/секСтандарт вещания : PALЦветовое пространство : YUVСубдискретизация насыщенности : 4:2:0Битовая глубина : 8 битТип развёртки : ЧересстрочнаяПорядок развёртки : Верхнее поле первоеМетод сжатия : С потерямиБит/(Пиксели*Кадры) : 0.225Временной код первого кадра : 00:00:00:00Оригинал временного кода : Group of pictures headerРазмер потока : 1,50 Гбайт (90%)Default : ДаForced : НетGop_OpenClosed_FirstFrame : Closed
АудиоИдентификатор : 2Формат : MPEG AudioВерсия формата : Version 1Профиль формата : Layer 2Идентификатор кодека : A_MPEG/L2Идентификатор кодека/Подсказка : MP2Продолжительность : 1 ч. 34 м.Вид битрейта : ПостоянныйБитрейт : 192 Кбит/секКаналы : 2 каналаЧастота : 48,0 КГцМетод сжатия : С потерямиРазмер потока : 129 Мбайт (8%)Язык : FrenchDefault : ДаForced : Нет

Скриншот c названием фильма

Скриншоты


Резервные скриншоты


-[2'000]
[Профиль] [ЛС]

Создавать темы 06-Авг-2015 22:50 (спустя 7 месяцев 6 дней)

Топик был перенесен из форума Фильмы до 2014 года в форум Фильмы до 2012 года
sergej644
 
Показать сообщения:    

Текущее время: Сегодня 12:51

Часовой пояс: GMT



Вы не можете начинать темы
Вы не можете отвечать на сообщения
Вы не можете редактировать свои сообщения
Вы не можете удалять свои сообщения
Вы не можете голосовать в опросах
Вы не можете прикреплять файлы к сообщениям
Вы не можете скачивать файлы