Виноваты звёзды / The Fault in Our Stars (Джош Бун / Josh Boone) [2014, США, Драма, мелодрама, WEB-DLRip] VO (А. Матвеев)

 
Автор Сообщение

painkiller ®

Стаж: 2 года 3 месяца

Сообщений: 582



Награды: Нет

Торрент-статистика

Создавать темы 23-Авг-2014 01:02

[Цитировать]

Виноваты звездыThe Fault in Our Stars«One sick love story»- Страна: США
Жанр: драма, мелодрама
Год выпуска: 2014
Продолжительность: 02:13:17-Перевод: Одноголосый, закадровый (А. Матвеев)
Режиссер: Джош Бун / Josh Boone
В ролях: Шейлин Вудли, Энсел Эльгорт, Лора Дерн, Сэм Трэммелл, Нат Вулф, Уиллем Дефо, Лотте Вербеек, Ана Дела Крус, Рэнди Ковиц. Тони Саладна-Описание: Хэйзел больна раком. Несмотря на то, что болезнь временно отступила, девушка не чувствует ни капли радости. Она ходит в группу поддержки, где однажды знакомится с Августом Уотерсом и моментально влюбляется в него. Август и Хэйзел отправляются в полное страсти и жизни путешествие, которое лишний раз покажет им, что весь смысл жизни можно найти в любом ее отрезке.-
MPAA: PG-13 - Детям до 13 лет просмотр не желателен-Качество: WEB-DLRip | WEB-DL 720p | sample
Контейнер: AVI
Видео: XviD, 720x384 (1.875), 1363 kbps, 23,976 fps, 0,206 bpp
Аудио: AC3 / 2.0 / 48 kHz / 192 kbps / 16 bit-

Скриншоты

Media Info

General
Complete name : E:\The.Fault.in.Our.Stars.2014.WEB-DLRip.by.Дядя_Лёша.avi
Format : AVI
Format/Info : Audio Video Interleave
File size : 1.46 GiB
Duration : 2h 13mn
Overall bit rate : 1 565 Kbps
Writing application : VirtualDubMod 1.5.10.3 | www.virtualdub-fr.org || (build 2550/release)
Writing library : VirtualDubMod build 2550/release
Video
ID : 0
Format : MPEG-4 Visual
Format profile : Advanced Simple@L5
Format settings, BVOP : 1
Format settings, QPel : No
Format settings, GMC : No warppoints
Format settings, Matrix : Custom
Codec ID : XVID
Codec ID/Hint : XviD
Duration : 2h 13mn
Bit rate : 1 364 Kbps
Width : 720 pixels
Height : 384 pixels
Display aspect ratio : 1.875
Frame rate : 23.976 fps
Color space : YUV
Chroma subsampling : 4:2:0
Bit depth : 8 bits
Scan type : Progressive
Compression mode : Lossy
Bits/(Pixel*Frame) : 0.206
Stream size : 1.27 GiB (87%)
Writing library : XviD 73
Audio
ID : 1
Format : AC-3
Format/Info : Audio Coding 3
Mode extension : CM (complete main)
Codec ID : 2000
Duration : 2h 12mn
Bit rate mode : Constant
Bit rate : 192 Kbps
Channel(s) : 2 channels
Channel positions : Front: L R
Sampling rate : 48.0 KHz
Bit depth : 16 bits
Compression mode : Lossy
Stream size : 183 MiB (12%)
Alignment : Split accross interleaves
Interleave, duration : 42 ms (1.00 video frame)
Interleave, preload duration : 500 ms
[Профиль] [ЛС]
Кто просматривает тему:

Форум Тема Автор Размер
Детская литература Александр Волков - Волшебник Изумрудного города [Читает Николай Литвинов, 128 kbps] sergej644 103 MB
Боевики, детективы, триллеры Анна и Сергей Литвиновы - Бойтесь данайцев, дары приносящих (2016) MP3 Swager 644 MB
Боевики, детективы, триллеры Анна и Сергей Литвиновы - Здесь вам не Сакраменто (2016) MP3 Swager 538 MB
Боевики, детективы, триллеры Анна и Сергей Литвиновы - Сердце Бога (2015) MP3 Swager 264 MB
Боевики, детективы, триллеры Анна и Сергей Литвиновы - Эксклюзивный грех (2016) MP3 Swager 594 MB
Фильмы 2011 года Виноват Фидель / La faute a Fidel (Жюли Гаврас / Julie Gavras) [2006, Италия, Франция, историческая драма, экранизация, DVB] Original (Fre) + Sub (rus) TorrentFilm 1.66 GB
Фильмы (HD Rips | 720p, 1080p) Виноваты звезды / The Fault in Our Stars (2014) BDRip 720p от Leonardo and Scarabey | Расширенная версия | Лицензия sergej644 3.61 GB
Фильмы (HD Rips | 720p, 1080p) Виноваты звезды / The Fault in Our Stars (2014) BDRip 720p от NNNB | Extended sergej644 4.36 GB
Показать сообщения:    

Текущее время: Сегодня 10:17

Часовой пояс: GMT



Вы не можете начинать темы
Вы не можете отвечать на сообщения
Вы не можете редактировать свои сообщения
Вы не можете удалять свои сообщения
Вы не можете голосовать в опросах
Вы не можете прикреплять файлы к сообщениям
Вы не можете скачивать файлы