Виноваты звезды / The Fault in Our Stars (2014) BDRip 720p от NNNB | Extended

 
Автор Сообщение

sergej644 ®

Пол:

Стаж: 4 года 11 месяцев

Сообщений: 6042

Откуда: Soviet Union



Награды: Нет

Торрент-статистика

Создавать темы 08-Фев-2015 13:28

[Цитировать]

--Виноваты звезды Название: Виноваты звезды
Оригинальное название: The Fault in Our Stars
Год выпуска: 2014
Жанр: Драма, мелодрама
Выпущено: США, Temple Hill Entertainment
Режиссер: Джош Бун
В ролях: Шэйлин Вудли, Энсел Эльгорт, Лора Дерн, Сэм Трэммелл, Нат Вулф, Уиллем Дефо, Лотте Вербеек, Ана Дела Крус, Рэнди Ковиц. Тони Саладна
Перевод: Дублированный
Сюжет фильма
Хэйзел больна раком. Несмотря на то, что болезнь временно отступила, девушка не чувствует ни капли радости. Она ходит в группу поддержки, где однажды знакомится с Августом Уотерсом и моментально влюбляется в него. Август и Хэйзел отправляются в полное страсти и жизни путешествие, которое лишний раз покажет им, что весь смысл жизни можно найти в любом ее отрезке.

Файл
Качество: BDRip 720p (исходник Blu-ray Remux)
Видео: 1280x692, 3 428 Кбит/сек, 23.976 кадр/сек, AVC, x264, High@L4.1, 0.161 Бит/[Пиксели*Кадры], 2pass
Аудио 1: AC3 5.1 48 kHz 640 kbps - Дублированный
Аудио 2: AC3 5.1 48 kHz 640 kbps - English

Субтитры: Russian
Продолжительность: 02:12:53

Скриншоты

MediaInfo

Format : Matroska
Format version : Version 2
File size : 4.36 GiB
Duration : 2h 12mn
Overall bit rate : 4 698 Kbps
Movie name : Vinovaty zvezdy.(2014).BDRip.720p.[denis100]
Encoded date : UTC 2014-09-19 04:59:05
Writing application : mkvmerge v5.8.0 ('No Sleep / Pillow') built on Sep 2 2012 15:37:04
Writing library : libebml v1.2.3 + libmatroska v1.3.0
Video
ID : 1
Format : AVC
Format/Info : Advanced Video Codec
Format profile : High@L4.1
Format settings, CABAC : Yes
Format settings, ReFrames : 9 frames
Codec ID : V_MPEG4/ISO/AVC
Duration : 2h 12mn
Bit rate : 3 428 Kbps
Width : 1 280 pixels
Height : 692 pixels
Display aspect ratio : 1.85:1
Frame rate mode : Constant
Frame rate : 23.976 fps
Color space : YUV
Chroma subsampling : 4:2:0
Bit depth : 8 bits
Scan type : Progressive
Bits/(Pixel*Frame) : 0.161
Stream size : 3.09 GiB (71%)
Title : Vinovaty zvezdy.(2014).BDRip.720p.[denis100]
Writing library : x264 core 142 r2453 ea0ca51
Encoding settings : cabac=1 / ref=9 / deblock=1:-3:-3 / analyse=0x3:0x133 / me=umh / subme=11 / psy=1 / psy_rd=1.00:0.10 / mixed_ref=1 / me_range=32 / chroma_me=1 / trellis=2 / 8x8dct=1 / cqm=0 / deadzone=21,11 / fast_pskip=0 / chroma_qp_offset=-3 / threads=6 / lookahead_threads=1 / sliced_threads=0 / nr=0 / decimate=1 / interlaced=0 / bluray_compat=0 / constrained_intra=0 / bframes=6 / b_pyramid=2 / b_adapt=2 / b_bias=0 / direct=3 / weightb=1 / open_gop=0 / weightp=2 / keyint=240 / keyint_min=23 / scenecut=40 / intra_refresh=0 / rc=2pass / mbtree=0 / bitrate=3428 / ratetol=1.0 / qcomp=0.60 / qpmin=0 / qpmax=69 / qpstep=4 / cplxblur=20.0 / qblur=0.5 / ip_ratio=1.40 / pb_ratio=1.30 / aq=1:1.00
Language : English
Default : Yes
Forced : No
Audio #1
ID : 2
Format : AC-3
Format/Info : Audio Coding 3
Mode extension : CM (complete main)
Format settings, Endianness : Big
Codec ID : A_AC3
Duration : 2h 12mn
Bit rate mode : Constant
Bit rate : 640 Kbps
Channel(s) : 6 channels
Channel positions : Front: L C R, Side: L R, LFE
Sampling rate : 48.0 KHz
Bit depth : 16 bits
Compression mode : Lossy
Stream size : 608 MiB (14%)
Title : Дублированный
Language : Russian
Default : Yes
Forced : No
Audio #2
ID : 3
Format : AC-3
Format/Info : Audio Coding 3
Mode extension : CM (complete main)
Format settings, Endianness : Big
Codec ID : A_AC3
Duration : 2h 12mn
Bit rate mode : Constant
Bit rate : 640 Kbps
Channel(s) : 6 channels
Channel positions : Front: L C R, Side: L R, LFE
Sampling rate : 48.0 KHz
Bit depth : 16 bits
Compression mode : Lossy
Stream size : 608 MiB (14%)
Title : English
Language : English
Default : No
Forced : No
Text
ID : 4
Format : UTF-8
Codec ID : S_TEXT/UTF8
Codec ID/Info : UTF-8 Plain Text
Title : Russian
Language : Russian
Default : No
Forced : No
Menu
00:00:00.000 : en:00:00:00.000
00:02:34.529 : en:00:02:34.529
00:06:25.593 : en:00:06:25.593
00:13:01.906 : en:00:13:01.906
00:15:07.615 : en:00:15:07.615
00:18:12.591 : en:00:18:12.591
00:21:05.681 : en:00:21:05.681
00:24:59.789 : en:00:24:59.789
00:28:35.380 : en:00:28:35.380
00:31:30.805 : en:00:31:30.805
00:38:12.873 : en:00:38:12.873
00:41:51.217 : en:00:41:51.217
00:49:19.831 : en:00:49:19.831
00:56:41.606 : en:00:56:41.606
01:02:27.326 : en:01:02:27.326
01:05:40.978 : en:01:05:40.978
01:08:17.426 : en:01:08:17.426
01:14:57.743 : en:01:14:57.743
01:20:58.478 : en:01:20:58.478
01:25:30.333 : en:01:25:30.333
01:29:04.338 : en:01:29:04.338
01:34:50.476 : en:01:34:50.476
01:43:59.024 : en:01:43:59.024
01:46:27.088 : en:01:46:27.088
01:52:18.481 : en:01:52:18.481
01:57:25.454 : en:01:57:25.454
02:01:09.303 : en:02:01:09.303
02:06:16.402 : en:02:06:16.402

x264

x264 [info]: frame I:1870 Avg QP:14.64 size:142019
x264 [info]: frame P:41976 Avg QP:16.95 size: 38410
x264 [info]: frame B:147338 Avg QP:18.84 size: 10363
[Профиль] [ЛС]
Кто просматривает тему:

Форум Тема Автор Размер
Детская литература Александр Волков - Волшебник Изумрудного города [Читает Николай Литвинов, 128 kbps] sergej644 103 MB
Боевики, детективы, триллеры Анна и Сергей Литвиновы - Бойтесь данайцев, дары приносящих (2016) MP3 Swager 644 MB
Боевики, детективы, триллеры Анна и Сергей Литвиновы - Здесь вам не Сакраменто (2016) MP3 Swager 538 MB
Боевики, детективы, триллеры Анна и Сергей Литвиновы - Сердце Бога (2015) MP3 Swager 264 MB
Боевики, детективы, триллеры Анна и Сергей Литвиновы - Эксклюзивный грех (2016) MP3 Swager 594 MB
Фильмы 2011 года Виноват Фидель / La faute a Fidel (Жюли Гаврас / Julie Gavras) [2006, Италия, Франция, историческая драма, экранизация, DVB] Original (Fre) + Sub (rus) TorrentFilm 1.66 GB
Фильмы (HD Rips | 720p, 1080p) Виноваты звезды / The Fault in Our Stars (2014) BDRip 720p от Leonardo and Scarabey | Расширенная версия | Лицензия sergej644 3.61 GB
Фильмы 2014 года Виноваты звезды / The Fault in Our Stars (2014) BDRip-AVC от ExKinoRay | Theatrical Cut | Лицензия sergej644 2.49 GB
Показать сообщения:    

Текущее время: Сегодня 12:30

Часовой пояс: GMT



Вы не можете начинать темы
Вы не можете отвечать на сообщения
Вы не можете редактировать свои сообщения
Вы не можете удалять свои сообщения
Вы не можете голосовать в опросах
Вы не можете прикреплять файлы к сообщениям
Вы не можете скачивать файлы