Виноваты звезды / The Fault in Our Stars (2014) BDRip-AVC от ExKinoRay | Theatrical Cut | Лицензия

 
Автор Сообщение

sergej644 ®

Пол:

Стаж: 4 года 11 месяцев

Сообщений: 6038

Откуда: Soviet Union



Награды: Нет

Торрент-статистика

Создавать темы 26-Дек-2014 22:19

[Цитировать]

Информация о фильме
Название: Виноваты звезды
Оригинальное название: The Fault in Our Stars
Год выхода: 2014
Жанр: драма, мелодрама
Режиссер: Джош Бун
В ролях: Шейлин Вудли, Энсел Элгорт, Нат Вулф, Лора Дерн, Сэм Трэммелл, Уиллем Дефо, Лотте Вербеек, Ана Дела Крус, Рэнди Ковиц, Тони Саладна
О фильме:
Хэйзел больна раком. Несмотря на то, что болезнь временно отступила, девушка не чувствует ни капли радости. Она ходит в группу поддержки, где однажды знакомится с Огастусом Уотерсом и моментально влюбляется в него. Огастус и Хэйзел отправляются в полное страсти и жизни путешествие, которое лишний раз покажет им, что весь смысл жизни можно найти в любом ее отрезке.

Страна: США
Продолжительность: 02:05:54
Перевод: Профессиональный (полное дублирование)
Файл
Качество: BDRip (AVC)
Видео: MPEG-4 AVC, 1938 Кбит/с, 1024x554
Аудио: Русский, английский (AC3, 6 ch, 448 Кбит/с)
Субтитры: Русские, английские

MI

General
Unique ID : 199142270472667786851871132135755279536 (0x95D167FC0B9E0E5699E6344493CAECB0)
Complete name : C:Vinovaty.zvezdy.2014.D.Th.BDRip.AVC.ExKinoRay.mkv
Format : Matroska
Format version : Version 4 / Version 2
File size : 2.49 GiB
Duration : 2h 5mn
Overall bit rate : 2 832 Kbps
Movie name : Виноваты звезды 2014 from ExKinoRay
Encoded date : UTC 2014-12-26 16:34:38
Writing application : mkvmerge v6.6.0 ('The Edge Of The In Between') built on Dec 1 2013 17:55:00
Writing library : libebml v1.3.0 + libmatroska v1.4.1
Video
ID : 1
Format : AVC
Format/Info : Advanced Video Codec
Format profile : High@L4.1
Format settings, CABAC : Yes
Format settings, ReFrames : 10 frames
Codec ID : V_MPEG4/ISO/AVC
Duration : 2h 5mn
Bit rate : 1 938 Kbps
Width : 1 024 pixels
Height : 554 pixels
Display aspect ratio : 1.85:1
Frame rate mode : Constant
Frame rate : 23.976 fps
Color space : YUV
Chroma subsampling : 4:2:0
Bit depth : 8 bits
Scan type : Progressive
Bits/(Pixel*Frame) : 0.142
Stream size : 1.65 GiB (66%)
Title : Enigma-Vladislav71
Writing library : x264 core 133 r2334 a3ac64b
Encoding settings : cabac=1 / ref=10 / deblock=1:-2:-2 / analyse=0x3:0x113 / me=umh / subme=11 / psy=1 / psy_rd=1.00:0.10 / mixed_ref=1 / me_range=32 / chroma_me=1 / trellis=2 / 8x8dct=1 / cqm=0 / deadzone=21,11 / fast_pskip=0 / chroma_qp_offset=-3 / threads=12 / lookahead_threads=2 / sliced_threads=0 / nr=0 / decimate=0 / interlaced=0 / bluray_compat=0 / constrained_intra=0 / bframes=8 / b_pyramid=2 / b_adapt=2 / b_bias=0 / direct=3 / weightb=1 / open_gop=0 / weightp=2 / keyint=240 / keyint_min=23 / scenecut=40 / intra_refresh=0 / rc=2pass / mbtree=0 / bitrate=1938 / ratetol=1.0 / qcomp=0.60 / qpmin=0 / qpmax=69 / qpstep=4 / cplxblur=20.0 / qblur=0.5 / ip_ratio=1.40 / pb_ratio=1.30 / aq=1:1.00
Language : English
Default : Yes
Forced : No
Color primaries : BT.709
Transfer characteristics : BT.709
Matrix coefficients : BT.709
Audio #1
ID : 2
Format : AC-3
Format/Info : Audio Coding 3
Mode extension : CM (complete main)
Format settings, Endianness : Big
Codec ID : A_AC3
Duration : 2h 5mn
Bit rate mode : Constant
Bit rate : 448 Kbps
Channel(s) : 6 channels
Channel positions : Front: L C R, Side: L R, LFE
Sampling rate : 48.0 KHz
Bit depth : 16 bits
Compression mode : Lossy
Stream size : 403 MiB (16%)
Title : Dub
Language : Russian
Default : Yes
Forced : No
Audio #2
ID : 3
Format : AC-3
Format/Info : Audio Coding 3
Mode extension : CM (complete main)
Format settings, Endianness : Big
Codec ID : A_AC3
Duration : 2h 5mn
Bit rate mode : Constant
Bit rate : 448 Kbps
Channel(s) : 6 channels
Channel positions : Front: L C R, Side: L R, LFE
Sampling rate : 48.0 KHz
Bit depth : 16 bits
Compression mode : Lossy
Stream size : 403 MiB (16%)
Language : English
Default : No
Forced : No
Text #1
ID : 4
Format : UTF-8
Codec ID : S_TEXT/UTF8
Codec ID/Info : UTF-8 Plain Text
Title : forced
Language : Russian
Default : Yes
Forced : Yes
Text #2
ID : 5
Format : UTF-8
Codec ID : S_TEXT/UTF8
Codec ID/Info : UTF-8 Plain Text
Title : full
Language : Russian
Default : No
Forced : No
Text #3
ID : 6
Format : UTF-8
Codec ID : S_TEXT/UTF8
Codec ID/Info : UTF-8 Plain Text
Title : full
Language : English
Default : No
Forced : No
Menu
00:00:00.000 : :Chapter 01
00:02:34.529 : :Chapter 02
00:06:25.593 : :Chapter 03
00:13:01.906 : :Chapter 04
00:15:07.615 : :Chapter 05
00:18:12.591 : :Chapter 06
00:21:05.681 : :Chapter 07
00:24:59.789 : :Chapter 08
00:28:35.380 : :Chapter 09
00:31:30.805 : :Chapter 10
00:36:40.865 : :Chapter 11
00:40:18.541 : :Chapter 12
00:45:48.745 : :Chapter 13
00:52:00.659 : :Chapter 14
00:57:46.379 : :Chapter 15
01:01:00.031 : :Chapter 16
01:03:36.479 : :Chapter 17
01:10:16.754 : :Chapter 18
01:16:17.447 : :Chapter 19
01:20:49.386 : :Chapter 20
01:24:23.141 : :Chapter 21
01:30:09.529 : :Chapter 22
01:37:06.862 : :Chapter 23
01:39:34.968 : :Chapter 24
01:45:26.361 : :Chapter 25
01:50:33.334 : :Chapter 26
01:54:17.183 : :Chapter 27
01:59:24.282 : :Chapter 28

Скриншоты


Авторы релиза:
[Профиль] [ЛС]
Кто просматривает тему:

Форум Тема Автор Размер
Детская литература Александр Волков - Волшебник Изумрудного города [Читает Николай Литвинов, 128 kbps] sergej644 103 MB
Боевики, детективы, триллеры Анна и Сергей Литвиновы - Бойтесь данайцев, дары приносящих (2016) MP3 Swager 644 MB
Боевики, детективы, триллеры Анна и Сергей Литвиновы - Здесь вам не Сакраменто (2016) MP3 Swager 538 MB
Боевики, детективы, триллеры Анна и Сергей Литвиновы - Сердце Бога (2015) MP3 Swager 264 MB
Боевики, детективы, триллеры Анна и Сергей Литвиновы - Эксклюзивный грех (2016) MP3 Swager 594 MB
Фильмы 2011 года Виноват Фидель / La faute a Fidel (Жюли Гаврас / Julie Gavras) [2006, Италия, Франция, историческая драма, экранизация, DVB] Original (Fre) + Sub (rus) TorrentFilm 1.66 GB
Фильмы (HD Rips | 720p, 1080p) Виноваты звезды / The Fault in Our Stars (2014) BDRip 720p от Leonardo and Scarabey | Расширенная версия | Лицензия sergej644 3.61 GB
Фильмы (HD Rips | 720p, 1080p) Виноваты звезды / The Fault in Our Stars (2014) BDRip 720p от NNNB | Extended sergej644 4.36 GB
Показать сообщения:    

Текущее время: Сегодня 04:14

Часовой пояс: GMT



Вы не можете начинать темы
Вы не можете отвечать на сообщения
Вы не можете редактировать свои сообщения
Вы не можете удалять свои сообщения
Вы не можете голосовать в опросах
Вы не можете прикреплять файлы к сообщениям
Вы не можете скачивать файлы