Винни Пух (1969, 1971,1972) BDRip-AVC от Sheikn

 
Автор Сообщение

Белочка ®

Пол:

Стаж: 5 лет 1 месяц

Сообщений: 2089



Награды: 1 (Подробнее)

Girls (Количество: 1)
Торрент-статистика

Создавать темы 02-Ноя-2014 21:40

[Цитировать]

Информация о фильме
Оригинальное название: Винни Пух
Год выхода: 1969
Жанр: Мультфильм, короткометражка, семейный
Режиссер: Фёдор Хитрук
Озвучивали: Евгений Леонов, Ия Саввина, Зинаида Нарышкина, Эраст Гарин, Владимир Осенев, Анатолий Щукин
О мультфильме: Первый фильм из серии о забавном медвежонке и его друзьях. Фильм снят по сказке Алана Милна. Глава, в которой происходит знакомство с Винни-Пухом и подозрительными пчелами.

Винни Пух идет в гости - 1971 ~00:10:19
О том как Винни с Пятачком идут в гости к Кролику.

Винни Пух и день забот - 1972 ~00:20:15
У ослика Иа день рождения, о котором все забыли. Но друзья есть и они собираются дарить подарки…

Страна: СССР / Союзмультфильм
Продолжительность: 00:41:27
Язык: Русский
Дата релиза: 06.12.2013
Файл
Кодек: MPEG-4 AVC
Качество: BDRip (AVC)
Видео: 768x576, 2262 Кбит/с
Звук: АС3, 6 ch, 448 Кбит/с
Семпл

Скриншоты



Раскадровка

Тех данные

Unique ID : 247951927194680455370581655034394871584 (0xBA89CDDBCF377FFF9F4911B1DFD48720)
Complete name : D:Vinni.Puh.1969.1971.1972.x264.BDRip.AVC.(Sheikn).mkv
Format : Matroska
Format version : Version 2
File size : 820 MiB
Duration : 41mn 26s
Overall bit rate : 2 765 Kbps
Encoded date : UTC 2013-12-06 18:05:59
Writing application : mkvmerge v4.0.0 ('The Stars were mine') сборка от Jun 6 2010 16:18:42
Writing library : libebml v1.0.0 + libmatroska v1.0.0
Video #1
ID : 1
Format : AVC
Format/Info : Advanced Video Codec
Format profile : High 10@L4.1
Format settings, CABAC : Yes
Format settings, ReFrames : 5 frames
Codec ID : V_MPEG4/ISO/AVC
Duration : 41mn 26s
Bit rate : 2 262 Kbps
Nominal bit rate : 2 588 Kbps
Width : 768 pixels
Height : 576 pixels
Display aspect ratio : 4:3
Frame rate mode : Constant
Frame rate : 23.976 fps
Color space : YUV
Chroma subsampling : 4:2:0
Bit depth : 10 bits
Scan type : Progressive
Bits/(Pixel*Frame) : 0.213
Stream size : 671 MiB (82%)
Writing library : x264 core 130 r2273 b3065e6
Encoding settings : cabac=1 / ref=5 / deblock=1:-2:-2 / analyse=0x3:0x113 / me=umh / subme=9 / psy=1 / psy_rd=1.00:0.10 / mixed_ref=1 / me_range=30 / chroma_me=1 / trellis=2 / 8x8dct=1 / cqm=0 / deadzone=21,11 / fast_pskip=1 / chroma_qp_offset=-3 / threads=3 / lookahead_threads=1 / sliced_threads=0 / nr=0 / decimate=1 / interlaced=0 / bluray_compat=0 / constrained_intra=0 / bframes=3 / b_pyramid=2 / b_adapt=2 / b_bias=0 / direct=3 / weightb=1 / open_gop=0 / weightp=2 / keyint=250 / keyint_min=23 / scenecut=40 / intra_refresh=0 / rc_lookahead=50 / rc=2pass / mbtree=1 / bitrate=2588 / ratetol=1.0 / qcomp=0.60 / qpmin=0 / qpmax=81 / qpstep=4 / cplxblur=20.0 / qblur=0.5 / ip_ratio=1.40 / aq=1:1.00
Default : No
Forced : No
Audio #2
ID : 2
Format : AC-3
Format/Info : Audio Coding 3
Mode extension : CM (complete main)
Format settings, Endianness : Big
Codec ID : A_AC3
Duration : 41mn 26s
Bit rate mode : Constant
Bit rate : 448 Kbps
Channel(s) : 6 channels
Channel positions : Front: L C R, Side: L R, LFE
Sampling rate : 48.0 KHz
Bit depth : 16 bits
Compression mode : Lossy
Stream size : 133 MiB (16%)
Default : No
Forced : No

Интересно

В этом мультфильме (а также в его сиквелах) отсутствует Кристофер Робин, поэтому Винни Пух и его друзья не живут в воображении мальчика, а действуют, как самостоятельные существа. Здесь Кристофер был заменён Пятачком.
Как вспоминал режиссёр картины Фёдор Хитрук, при подборе актёров для озвучивания главных героев мультфильмов о Винни-Пухе возникли сложности.
Перепробовали множество актёров, но никто не подходил. Попробовали Евгения Леонова, но его голос также оказался слишком низким и не устроил создателя мультфильма. Тогда звукооператор неожиданно предложил немного ускорить голос быстрой перемоткой плёнки — результат оказался замечательным. Голос попал точно в персонажа. Тот же приём использовали для других героев мультфильма.
Как признавалась сама Ия Саввина, когда она создавала образ Пятачка, она немного пародировала Беллу Ахмадуллину в её роли в фильме «Живёт такой парень»
Награды:
1976 - Государственная премия СССР режиссёру Фёдору Хитруку
Релиз от:
[Профиль] [ЛС]
Показать сообщения:    

Текущее время: Сегодня 06:04

Часовой пояс: GMT



Вы не можете начинать темы
Вы не можете отвечать на сообщения
Вы не можете редактировать свои сообщения
Вы не можете удалять свои сообщения
Вы не можете голосовать в опросах
Вы не можете прикреплять файлы к сообщениям
Вы не можете скачивать файлы