Виль-Мари / Ville-Marie (2015) WEB-DL 720p | L2

 
Автор Сообщение

достали все ®

Пол:

Стаж: 1 год 8 месяцев

Сообщений: 6524



Награды: 12 (Подробнее)

Top Releaser 4 (Количество: 1) Mega Seeder 5 (Количество: 1) Mega Seeder 3 (Количество: 1)
Торрент-статистика

Создавать темы 25-Апр-2016 11:21

[Цитировать]

Год выпуска: 2015
Страна: Канада
Жанр: драма
Примечание: Присутствует реклама!
Продолжительность: 01:39:55
Перевод: Любительский двухголосый-Режиссер: Ги Эдуа-В ролях: Моника Беллуччи (Sophie Bernard), Паскаль Бюссьер (Marie Santerre), Алеша Шнайдер (Thomas), Patrick Hivon (Pierre Pascal), Луис Шампейн (Benoit Tremblay), Фридерик Жиль (Robert M.), Стефани Лаббе (Danika Ménard), Marie-Evelyne Lessard (Dre Robillard), Сандрин Биссон (Serveuse Bar), Натали Гаскон (Première assistante), Mikhaïl Ahooja (Alexis), Патрик Ко (Directeur photo)-Описание:
Французская актриса Софи пытается наладить отношения с сыном, который хочет выяснить, кто же является его биологическим отцом. После неожиданных роковых событий судьба сводит их с медсестрой и работником отделения «скорой помощи», и теперь их жизни изменятся навсегда.-Рейтинг:

MPAA: PG-13 - Детям до 18 лет просмотр не желателен-Качество: WEB-DL 720p
Формат: MKV
Видео: AVC, 1280x536 (2.40:1), 3471 kbps, 23,976 fps, 0,211 bpp
Аудио: AC3 / 2.0 / 48 kHz / 384 kbps / 16 bit
-

ОтчетМедиаИнфо

Уникальный идентификатор : 235970687161212827766007596936085787488 (0xB1864D1E12EAE3D6893CD3718CDE5360)
Полное имя : D:С инетаВиль-Мари - Ville-Marie (2015)_720.mkv
Формат : Matroska
Версия формата : Version 4 / Version 2
Размер файла : 2,75 Гбайт
Продолжительность : 1 ч. 39 м.
Режим общего битрейта : Постоянный
Общий поток : 3934 Кбит/сек
Дата кодирования : UTC 2016-04-16 21:20:00
Программа кодирования : mkvmerge v7.6.0 ('Garden of Dreams') 64bit built on Feb 8 2015 13:04:34
Библиотека кодирования : libebml v1.3.1 + libmatroska v1.4.2
Видео
Идентификатор : 1
Формат : AVC
Формат/Информация : Advanced Video Codec
Профиль формата : High@L4.1
Параметр CABAC формата : Да
Параметр ReFrames формата : 12 кадров
Идентификатор кодека : V_MPEG4/ISO/AVC
Продолжительность : 1 ч. 39 м.
Вид битрейта : Постоянный
Битрейт : 3548 Кбит/сек
Номинальный битрейт : 4100 Кбит/сек
Ширина : 1280 пикселей
Высота : 536 пикселей
Соотношение сторон : 2,40:1
Режим частоты кадров : Постоянный
Частота кадров : 23,976 (24000/1001) кадра/сек
Стандарт вещания : Component
Цветовое пространство : YUV
Субдискретизация насыщенности : 4:2:0
Битовая глубина : 8 бит
Тип развёртки : Прогрессивная
Бит/(Пиксели*Кадры) : 0.216
Размер потока : 2,48 Гбайт (90%)
Default : Да
Forced : Нет
Цветовой диапазон : Limited
Основные цвета : BT.709
Характеристики трансфера : BT.709
Коэффициенты матрицы : BT.709
Аудио
Идентификатор : 2
Формат : AC-3
Формат/Информация : Audio Coding 3
Расширение режима : CM (complete main)
Параметр Endianness формата : Big
Идентификатор кодека : A_AC3
Продолжительность : 1 ч. 39 м.
Вид битрейта : Постоянный
Битрейт : 384 Кбит/сек
Каналы : 2 канала
Расположение каналов : Front: L R
Частота : 48,0 КГц
Частота кадров : 31,250 кадров/сек (1536 spf)
Метод сжатия : С потерями
Задержка видео : 100 мс.
Размер потока : 274 Мбайт (10%)
Default : Да
Forced : Нет

Скриншоты

[Профиль] [ЛС]
Кто просматривает тему:

Показать сообщения:    

Текущее время: Сегодня 13:56

Часовой пояс: GMT



Вы не можете начинать темы
Вы не можете отвечать на сообщения
Вы не можете редактировать свои сообщения
Вы не можете удалять свои сообщения
Вы не можете голосовать в опросах
Вы не можете прикреплять файлы к сообщениям
Вы не можете скачивать файлы