Виктор / Victor (Тома Жилу / Toma Zhilu) [2009, Франция, комедия, DVB] DVO

 
Автор Сообщение

painkiller ®

Стаж: 2 года 3 месяца

Сообщений: 582



Награды: Нет

Торрент-статистика

Создавать темы 15-Авг-2014 01:07

[Цитировать]

Виктор / Victor Страна: Франция
Жанр: комедия
Год выпуска: 2009
Продолжительность: 01:30:16
Перевод: Профессиональный (двухголосый закадровый)
Cубтитры: нет
Режиссер: Тома Жилу / Toma Zhilu
В ролях: Ламбер Вильсон, Сара Форестье, Пьер Ришар, Людовик Бертийо, Каролин Бург, Жаклин Корадо, Клементин Селарье, Лилу Фогли, Антуан Дюлери, Катрин Осмален
Описание: Одинокий и никому не нужный старик по имени Виктор уже отживает свой век. Глубокая старость, целый букет хронических болезней и неважное самочувствие заставляют этого человека ходить по краю. Но кто сказал, что 85 лет — это конец? Впереди ещё много нового, интересного, весёлого и… занимательного. И уж кому кто бы мог подумать, что именно Виктору было суждено выиграть общенациональный конкурс, устроенный редакцией одного печатного издательства.
Так старик возвращается к полноценной жизни, радуясь каждому новому дню и всё новым знакомствам, а также — вспоминая свои юношеские годы и начиная ухлёстывать за прелестными дамами, как ни удивительно и даже ни странно, получая взаимные симпатии и знаки внимания от представительниц прекрасного пола. Жизнь налаживается и всё встаёт на свои места, складываясь в приятную и отрадную мозаику старого-доброго порядка вещей. Но на этом приключения и веселье вовсе не заканчивается, ведь судьба ещё припасла пару-тройку сюрпризов для неугомонного Виктора…

Доп. информация: Запись со спутника (пакет НТВ+)
Сэмпл: http://multi-up.com/961634

Качество видео: DVB
Формат видео: TS
Видео: MPEG2, 704x576 (4:3), 25 fps, ~1647 kbps
Аудио: русский, 48 kHz, Mp-2, 2 ch, ~192.00 kbps

MediaInfo

Видео
Идентификатор : 335 (0x14F)
Идентификатор меню : 1 (0x1)
Формат : MPEG Video
Версия формата : Version 2
Профиль формата : Main@Main
Параметр BVOP формата : Да
Параметр матрицы формата : Выборочная
Параметр GOP формата : M=3, N=12
Идентификатор кодека : 2
Продолжительность : 1 ч. 30 м.
Вид битрейта : Переменный
Битрейт : 1647 Кбит/сек
Максимальный битрейт : 5000 Кбит/сек
Ширина : 704 пикселя
Высота : 576 пикселей
Соотношение сторон : 4:3
Частота кадров : 25,000 кадров/сек
Стандарт вещания : PAL
Цветовое пространство : YUV
Субдискретизация насыщенности : 4:2:0
Битовая глубина : 8 бит
Тип развёртки : Чересстрочная
Порядок развёртки : Верхнее поле первое
Метод сжатия : С потерями
Бит/(Пиксели*Кадры) : 0.162
TimeCode_FirstFrame : 00:00:00:00
TimeCode_Source : Group of pictures header
Размер потока : 1,04 Гбайт (85%)
Аудио
Идентификатор : 405 (0x195)
Идентификатор меню : 1 (0x1)
Формат : MPEG Audio
Версия формата : Version 1
Профиль формата : Layer 2
Идентификатор кодека : 3
Продолжительность : 1 ч. 30 м.
Вид битрейта : Постоянный
Битрейт : 192 Кбит/сек
Каналы : 2 канала
Частота : 48,0 КГц
Метод сжатия : С потерями
Задержка видео : 19 мс.
Размер потока : 124 Мбайт (10%)
Язык : Russian

Скриншот c названием фильма

Скриншоты

[Профиль] [ЛС]

Создавать темы 06-Авг-2015 23:13 (спустя 11 месяцев 22 дня)

Топик был перенесен из форума Фильмы до 2014 года в форум Фильмы до 2012 года
sergej644
 

Создавать темы 12-Июн-2016 08:48 (спустя 1 год 9 месяцев)

Топик был перенесен из форума Фильмы 2011 года в форум Фильмы 2009 года
Russian Mafia
 
Показать сообщения:    

Текущее время: Сегодня 22:23

Часовой пояс: GMT



Вы не можете начинать темы
Вы не можете отвечать на сообщения
Вы не можете редактировать свои сообщения
Вы не можете удалять свои сообщения
Вы не можете голосовать в опросах
Вы не можете прикреплять файлы к сообщениям
Вы не можете скачивать файлы