Виктор Франкенштейн / Victor Frankenstein (2015) HDRip-AVC | Лицензия

 
Автор Сообщение

достали все ®

Пол:

Стаж: 1 год 8 месяцев

Сообщений: 6542



Награды: 12 (Подробнее)

Mega Releaser 1 (Количество: 1) Top Releaser 3 (Количество: 1) Mega Seeder 1 (Количество: 1)
Торрент-статистика

Создавать темы 09-Мар-2016 14:21

[Цитировать]

Информация о фильме
Название: Виктор Франкенштейн
Оригинальное название: Victor Frankenstein
Год выпуска: 2015
Страна: США
Жанр: ужасы, фантастика, драма
Перевод: Дубляж - Лицензия
Продолжительность: 01:50:24
Режиссер: Пол МакГиган
В ролях: Дэниэл Рэдклифф (Igor), Джессика Браун-Финдли (Lorelei), Бронсон Уэбб (Rafferty), Джеймс МакЭвой (Victor Frankenstein), Дэниэл Мейс (Barnaby), Спенсер Уидлинг (Nathaniel / Prometheus 2), Робин Пирс (Baron Bomine), Эндрю Скотт (Inspector Turpin), Каллум Тернер (Alistair), Ди Ботчер (Older Nun), Ив Понсонби (Orderly), Уилл Кин (Surgeon)
Описание:
Новый взгляд на фантастическую историю Виктора Франкенштейна, на этот раз - с точки зрения его помощника Игоря.

Файл
Качество: HDRip-AVC
Формат: MKV
Видео кодек: X264
Аудио кодек: AC3
Видео: 1046x438 (2,40:1), 23,976 fps, х264 ~ 2389 kbps avg, 0.217 bit/pixel
Аудио: 48,0 kHz, Audio Coding 3, 6 ch, ~448kbps avg
Субтитры: Russian, Ukrainian, English (вшитые, отключаемые / UTF-8)

x264

raw [info]: 1046x438p 1:1 @ 24000/1001 fps (cfr)
x264 [info]: using SAR=1/1
x264 [info]: using cpu capabilities: MMX2 SSE2Fast SSSE3 SSE4.2 AVX
x264 [info]: profile High, level 4.1
x264 [info]: frame I:1479 Avg QP:14.14 size: 69580
x264 [info]: frame P:38024 Avg QP:18.16 size: 24228
x264 [info]: frame B:118496 Avg QP:19.02 size: 7932
x264 [info]: consecutive B-frames: 4.0% 3.7% 10.8% 21.4% 15.2% 37.0% 4.2% 2.0% 1.8%

MI

Общее
Уникальный идентификатор : 247756041850657857326472581466876042319 (0xBA6413F72C2CBA0EA4957B154C8C5C4F)
Полное имя : D:ВидеоВиктор Франкенштейн. HDRip(AVC) by Vovan366(ExKinoRay) ..mkv
Формат : Matroska
Версия формата : Version 4 / Version 2
Размер файла : 2,17 Гбайт
Продолжительность : 1 ч. 49 м.
Общий поток : 2835 Кбит/сек
Название фильма : Виктор Франкенштейн. HDRip(AVC) by Vovan366(ExKinoRay)
Дата кодирования : UTC 2016-03-09 13:26:32
Программа кодирования : mkvmerge v8.9.0 ('Father Daughter') 64bit
Библиотека кодирования : libebml v1.3.3 + libmatroska v1.4.4
DURATION : 01:49:49.824000000
NUMBER_OF_FRAMES : 205932
NUMBER_OF_BYTES : 369030144
_STATISTICS_WRITING_APP : mkvmerge v8.9.0 ('Father Daughter') 64bit
_STATISTICS_WRITING_DATE_UTC : 2016-03-09 13:26:32
_STATISTICS_TAGS : BPS DURATION NUMBER_OF_FRAMES NUMBER_OF_BYTES
Видео
Идентификатор : 1
Формат : AVC
Формат/Информация : Advanced Video Codec
Профиль формата : High@L4.1
Параметр CABAC формата : Нет
Параметр ReFrames формата : 14 кадров
Идентификатор кодека : V_MPEG4/ISO/AVC
Продолжительность : 1 ч. 49 м.
Битрейт : 2389 Кбит/сек
Ширина : 1046 пикселей
Высота : 438 пикселей
Соотношение сторон : 2,40:1
Режим частоты кадров : Постоянный
Частота кадров : 23,976 кадра/сек
Цветовое пространство : YUV
Субдискретизация насыщенности : 4:2:0
Битовая глубина : 8 бит
Тип развёртки : Прогрессивная
Бит/(Пиксели*Кадры) : 0.217
Размер потока : 1,79 Гбайт (82%)
Заголовок : by Vovan366(ExKinoRay)
Библиотека кодирования : x264 core 148 r2638 7599210
Настройки программы : cabac=0 / ref=14 / deblock=1:-2:-2 / analyse=0x3:0x113 / me=umh / subme=10 / psy=1 / psy_rd=1.05:0.10 / mixed_ref=1 / me_range=32 / chroma_me=1 / trellis=2 / 8x8dct=1 / cqm=0 / deadzone=21,11 / fast_pskip=0 / chroma_qp_offset=-3 / threads=6 / lookahead_threads=1 / sliced_threads=0 / nr=0 / decimate=0 / interlaced=0 / bluray_compat=0 / constrained_intra=0 / bframes=8 / b_pyramid=2 / b_adapt=2 / b_bias=0 / direct=3 / weightb=1 / open_gop=0 / weightp=2 / keyint=250 / keyint_min=23 / scenecut=40 / intra_refresh=0 / rc=2pass / mbtree=0 / bitrate=2389 / ratetol=1.0 / qcomp=0.60 / qpmin=0 / qpmax=69 / qpstep=4 / cplxblur=20.0 / qblur=0.5 / ip_ratio=1.40 / pb_ratio=1.30 / aq=1:1.00
Default : Да
Forced : Нет
Основные цвета : BT.709
Характеристики трансфера : BT.709
Коэффициенты матрицы : BT.709
Аудио
Идентификатор : 2
Формат : AC-3
Формат/Информация : Audio Coding 3
Расширение режима : CM (complete main)
Параметр Endianness формата : Big
Идентификатор кодека : A_AC3
Продолжительность : 1 ч. 49 м.
Вид битрейта : Постоянный
Битрейт : 448 Кбит/сек
Каналы : 6 каналов
Расположение каналов : Front: L C R, Side: L R, LFE
Частота : 48,0 КГц
Битовая глубина : 16 бит
Метод сжатия : С потерями
Размер потока : 352 Мбайт (16%)
Default : Да
Forced : Нет
Текст #1
Идентификатор : 3
Формат : UTF-8
Идентификатор кодека : S_TEXT/UTF8
Идентификатор кодека/Информация : UTF-8 Plain Text
Заголовок : Forced
Язык : Russian
Default : Да
Forced : Нет
Текст #2
Идентификатор : 4
Формат : UTF-8
Идентификатор кодека : S_TEXT/UTF8
Идентификатор кодека/Информация : UTF-8 Plain Text
Язык : Russian
Default : Нет
Forced : Нет
Текст #3
Идентификатор : 5
Формат : UTF-8
Идентификатор кодека : S_TEXT/UTF8
Идентификатор кодека/Информация : UTF-8 Plain Text
Заголовок : Forced
Язык : Ukrainian
Default : Нет
Forced : Нет
Текст #4
Идентификатор : 6
Формат : UTF-8
Идентификатор кодека : S_TEXT/UTF8
Идентификатор кодека/Информация : UTF-8 Plain Text
Язык : Ukrainian
Default : Нет
Forced : Нет
Текст #5
Идентификатор : 7
Формат : UTF-8
Идентификатор кодека : S_TEXT/UTF8
Идентификатор кодека/Информация : UTF-8 Plain Text
Язык : English
Default : Нет
Forced : Нет
Меню
00:00:00.000 : en:Chapter 1
00:04:07.372 : en:Chapter 2
00:08:06.903 : en:Chapter 3
00:11:14.674 : en:Chapter 4
00:15:20.378 : en:Chapter 5
00:18:58.554 : en:Chapter 6
00:22:27.263 : en:Chapter 7
00:26:06.857 : en:Chapter 8
00:28:59.237 : en:Chapter 9
00:32:02.379 : en:Chapter 10
00:36:01.451 : en:Chapter 11
00:41:11.427 : en:Chapter 12
00:46:17.692 : en:Chapter 13
00:51:48.480 : en:Chapter 14
00:56:42.691 : en:Chapter 15
00:59:55.509 : en:Chapter 16
01:02:37.587 : en:Chapter 17
01:06:57.180 : en:Chapter 18
01:11:25.198 : en:Chapter 19
01:15:14.051 : en:Chapter 20
01:18:10.352 : en:Chapter 21
01:21:06.278 : en:Chapter 22
01:25:20.490 : en:Chapter 23
01:28:17.542 : en:Chapter 24
01:33:35.276 : en:Chapter 25
01:37:51.783 : en:Chapter 26
01:41:32.920 : en:Chapter 27
01:43:34.375 : en:Chapter 28

Скриншоты



Rip by: Vovan366
[Профиль] [ЛС]
Показать сообщения:    

Текущее время: Сегодня 08:29

Часовой пояс: GMT



Вы не можете начинать темы
Вы не можете отвечать на сообщения
Вы не можете редактировать свои сообщения
Вы не можете удалять свои сообщения
Вы не можете голосовать в опросах
Вы не можете прикреплять файлы к сообщениям
Вы не можете скачивать файлы