Виктор Франкенштейн / Victor Frankenstein (2015) BDRip 1080p | Лицензия

 
Автор Сообщение

достали все ®

Пол:

Стаж: 1 год 8 месяцев

Сообщений: 6545



Награды: 12 (Подробнее)

Mega Releaser 1 (Количество: 1) Top Releaser 3 (Количество: 1) Top Releaser 2 (Количество: 1)
Торрент-статистика

Создавать темы 09-Мар-2016 12:43

[Цитировать]

Информация о фильме
Название: Виктор Франкенштейн
Оригинальное название: Victor Frankenstein
Страна: США
Студия: 20th Century Fox Film Corporation, TSG Entertainment, Moving Picture Company, Davis Entertainment
Жанр: ужасы, фантастика, драма
Год выпуска: 2015
Продолжительность: 01:49:50
Перевод: Профессиональный (дублированный)
Cубтитры: Rus, Ukr, Eng
Оригинальная аудиодорожка: английский
Режиссер: Пол МакГиган / Paul McGuigan
В ролях: Дэниэл Рэдклифф, Джессика Браун-Финдли, Бронсон Уэбб, Джеймс МакЭвой, Дэниэл Мейс, Спенсер Уидлинг, Робин Пирс, Эндрю Скотт, Каллум Тернер, Ди Ботчер
Описание: Новый взгляд на фантастическую историю Виктора Франкенштейна, на этот раз - с точки зрения его помощника Игоря.

Тип релиза: BDRip 1080p
Контейнер: MKV
Видео: MPEG-4 AVC, 14.5 Mбит/с, 1920x804, 23,976 fps
Аудио: Rus, DTS, 768 kb/s (6 ch), 48 kHz
Аудио 2: Eng, DTS, 1510 kb/s (6 ch), 48 kHz
Формат субтитров: softsub (SRT)

MediaInfo

Format : Matroska
Format version : Version 4 / Version 2
File size : 13.1 GiB
Duration : 1h 49mn
Overall bit rate : 17.1 Mbps
Movie name : Виктор Франкенштейн. (Tonik)
Encoded date : UTC 2016-03-09 04:37:30
Writing application : mkvmerge v7.1.0 ('Good Love') 64bit built on Jul 27 2014 13:06:55
Writing library : libebml v1.3.0 + libmatroska v1.4.1
_STATISTICS_WRITING_APP : mkvmerge v7.1.0 ('Good Love') 64bit built on Jul 27 2014 13:06:55
_STATISTICS_WRITING_DATE_UTC : 2016-03-09 04:37:30
_STATISTICS_TAGS : BPS DURATION NUMBER_OF_FRAMES NUMBER_OF_BYTES
DURATION : 01:49:49.846000000
NUMBER_OF_FRAMES : 617801
NUMBER_OF_BYTES : 632628224
Video
ID : 1
Format : AVC
Format/Info : Advanced Video Codec
Format profile : High@L4.1
Format settings, CABAC : Yes
Format settings, ReFrames : 5 frames
Codec ID : V_MPEG4/ISO/AVC
Duration : 1h 49mn
Bit rate : 14.5 Mbps
Width : 1 920 pixels
Height : 804 pixels
Display aspect ratio : 2.40:1
Frame rate mode : Constant
Frame rate : 23.976 fps
Color space : YUV
Chroma subsampling : 4:2:0
Bit depth : 8 bits
Scan type : Progressive
Bits/(Pixel*Frame) : 0.392
Stream size : 11.1 GiB (85%)
Writing library : x264 core 146 r2538 121396c
Encoding settings : cabac=1 / ref=5 / deblock=1:-3:-3 / analyse=0x3:0x133 / me=umh / subme=11 / psy=1 / psy_rd=1.00:0.00 / mixed_ref=1 / me_range=32 / chroma_me=1 / trellis=2 / 8x8dct=1 / cqm=0 / deadzone=21,11 / fast_pskip=0 / chroma_qp_offset=-2 / threads=48 / lookahead_threads=6 / sliced_threads=0 / nr=0 / decimate=0 / interlaced=0 / bluray_compat=0 / constrained_intra=0 / bframes=11 / b_pyramid=2 / b_adapt=2 / b_bias=0 / direct=3 / weightb=1 / open_gop=0 / weightp=2 / keyint=240 / keyint_min=23 / scenecut=40 / intra_refresh=0 / rc_lookahead=150 / rc=crf / mbtree=0 / crf=16.8 / qcomp=0.60 / qpmin=0 / qpmax=69 / qpstep=4 / vbv_maxrate=62500 / vbv_bufsize=78125 / crf_max=0.0 / nal_hrd=none / filler=0 / ip_ratio=1.40 / pb_ratio=1.30 / aq=1:0.80
Language : English
Default : Yes
Forced : No
Audio #1
ID : 2
Format : DTS
Format/Info : Digital Theater Systems
Mode : 16
Format settings, Endianness : Big
Codec ID : A_DTS
Duration : 1h 49mn
Bit rate mode : Constant
Bit rate : 768 Kbps
Channel(s) : 6 channels
Channel positions : Front: L C R, Side: L R, LFE
Sampling rate : 48.0 KHz
Bit depth : 24 bits
Compression mode : Lossy
Stream size : 603 MiB (4%)
Language : Russian
Default : Yes
Forced : No
Audio #2
ID : 3
Format : DTS
Format/Info : Digital Theater Systems
Format profile : ES
Mode : 16
Format settings, Endianness : Big
Codec ID : A_DTS
Duration : 1h 49mn
Bit rate mode : Constant
Bit rate : 1 509 Kbps
Channel(s) : 6 channels
Channel positions : Front: L C R, Side: L R, LFE
Sampling rate : 48.0 KHz
Bit depth : 24 bits
Compression mode : Lossy
Stream size : 1.16 GiB (9%)
Language : English
Default : No
Forced : No
Text #1
ID : 4
Format : UTF-8
Codec ID : S_TEXT/UTF8
Codec ID/Info : UTF-8 Plain Text
Title : Forced
Language : Russian
Default : Yes
Forced : No
Text #2
ID : 5
Format : UTF-8
Codec ID : S_TEXT/UTF8
Codec ID/Info : UTF-8 Plain Text
Language : Russian
Default : No
Forced : No
Text #3
ID : 6
Format : UTF-8
Codec ID : S_TEXT/UTF8
Codec ID/Info : UTF-8 Plain Text
Title : Forced
Language : Ukrainian
Default : No
Forced : No
Text #4
ID : 7
Format : UTF-8
Codec ID : S_TEXT/UTF8
Codec ID/Info : UTF-8 Plain Text
Language : Ukrainian
Default : No
Forced : No
Text #5
ID : 8
Format : UTF-8
Codec ID : S_TEXT/UTF8
Codec ID/Info : UTF-8 Plain Text
Language : English
Default : No
Forced : No
Menu
00:00:00.000 : en:Chapter 1
00:04:07.372 : en:Chapter 2
00:08:06.903 : en:Chapter 3
00:11:14.674 : en:Chapter 4
00:15:20.378 : en:Chapter 5
00:18:58.554 : en:Chapter 6
00:22:27.263 : en:Chapter 7
00:26:06.857 : en:Chapter 8
00:28:59.237 : en:Chapter 9
00:32:02.379 : en:Chapter 10
00:36:01.451 : en:Chapter 11
00:41:11.427 : en:Chapter 12
00:46:17.692 : en:Chapter 13
00:51:48.480 : en:Chapter 14
00:56:42.691 : en:Chapter 15
00:59:55.509 : en:Chapter 16
01:02:37.587 : en:Chapter 17
01:06:57.180 : en:Chapter 18
01:11:25.198 : en:Chapter 19
01:15:14.051 : en:Chapter 20
01:18:10.352 : en:Chapter 21
01:21:06.278 : en:Chapter 22
01:25:20.490 : en:Chapter 23
01:28:17.542 : en:Chapter 24
01:33:35.276 : en:Chapter 25
01:37:51.783 : en:Chapter 26
01:41:32.920 : en:Chapter 27
01:43:34.375 : en:Chapter 28

Скриншоты

[Профиль] [ЛС]
Показать сообщения:    

Текущее время: Сегодня 02:43

Часовой пояс: GMT



Вы не можете начинать темы
Вы не можете отвечать на сообщения
Вы не можете редактировать свои сообщения
Вы не можете удалять свои сообщения
Вы не можете голосовать в опросах
Вы не можете прикреплять файлы к сообщениям
Вы не можете скачивать файлы