(Шансон) Виктор Королёв - Серия «SUPER HITS COLLECTION. 20 лучших песен» - 2012, FLAC (image+.cue), lossless

 
Автор Сообщение

sergej644 ®

Пол:

Стаж: 4 года 11 месяцев

Сообщений: 6041

Откуда: Soviet Union



Награды: Нет

Торрент-статистика

Создавать темы 14-Июл-2015 04:39

[Цитировать]

Виктор Королёв / Серия «SUPER HITS COLLECTION. 20 лучших песен»
Жанр: Шансон
Страна-производитель диска: Россия
Год издания: 2012
Издатель (лейбл): Классик Компани
Номер по каталогу: СС CD 65/12
Страна: Россия
Аудиокодек: FLAC (*.flac)
Тип рипа: image+.cue
Битрейт аудио: lossless
Продолжительность: 01:17:43
Источник (релизер): STOJAK
Наличие сканов в содержимом раздачи: да (PNG)
Треклист:
01. "Я не буду ждать тебя (Музыка и слова народные, обработка Ю. Алмазов)"
02. "Не родись красивой (С. Паради - С. Паради)"
03. "Лилия (В. Королёв - В. Королёв)"
04. "Я брошу жизнь свою к твоим ногам (В. Синицын - В. Звягинцев)"
05. "Братишка (С. Семикопенко - С. Семикопенко)"
06. "Драгоценная (В. Королёв - В. Королёв)"
07. "Букет Белых роз (С. Паради - С. Паради)"
08. "Ди ! Да ! Ду ! (В. Лизнер - В. Лизнер)"
09. "Рябина (В. Королёв - В. Королёв)"
10. "Городские встречи (С. Наговицын - С. Наговицын)"
11. "Кулончик (В. Королёв - В. Королёв)"
12. "Слёзы...(В. Королёв - В. Королёв)"
13. "Уходят в море корабли (Ю. Алмазов - Ю. Алмазов)"
14. "Алые розы (В. Королёв - В. Королёв)"
15. "Душа (В. Королёв - В. Королёв)"
16. "Уголёк (А. Дмитриев - А. Дмитриев)"
17. "Плачет гитара (В. Кызылов - В. Кызылов)"
18. "Бокал любви (В. Королёв - В. Королёв)"
19. "А на ветках снегири (В. Королёв - В. Королёв)"
20. "Заново начать (К. Дмитриев - К. Дмитриев)"

Отчёт EAC об извлечении, выполненном 12. декабря 2012, 19:51

Exact Audio Copy V1.0 beta 2 from 29. April 2011
Отчёт EAC об извлечении, выполненном 12. декабря 2012, 19:51
Виктор Королёв / Серия «SUPER HITS COLLECTION. 20 лучших песен»
Дисковод: Optiarc DVD RW AD-7190A   Adapter: 0  ID: 0
Режим чтения                 : Достоверность
Использование точного потока : Да
Отключение кэша аудио        : Да
Использование указателей C2  : Нет
Коррекция смещения при чтении                     : 6
Способность читать области Lead-in и Lead-out     : Нет
Заполнение пропущенных сэмплов тишиной            : Да
Удаление блоков с тишиной в начале и конце        : Нет
При вычислениях CRC использовались нулевые сэмплы : Да
Интерфейс                                         : Встроенный Win32-интерфейс для Win NT/2000
Выходной формат : Внутренние WAV-операции
Формат сэмплов  : 44.100 Гц; 16 бит; стерео
TOC извлечённого CD
     Трек |   Старт  | Длительность | Начальный сектор | Конечный сектор
    ---------------------------------------------------------------------
       1  |  0:00.00 |    4:12.15   |           0      |      18914
       2  |  4:12.15 |    3:43.52   |       18915      |      35691
       3  |  7:55.67 |    3:25.31   |       35692      |      51097
       4  | 11:21.23 |    4:34.35   |       51098      |      71682
       5  | 15:55.58 |    4:24.45   |       71683      |      91527
       6  | 20:20.28 |    3:49.70   |       91528      |     108772
       7  | 24:10.23 |    4:03.72   |      108773      |     127069
       8  | 28:14.20 |    3:28.37   |      127070      |     142706
       9  | 31:42.57 |    3:48.23   |      142707      |     159829
      10  | 35:31.05 |    4:09.00   |      159830      |     178504
      11  | 39:40.05 |    3:12.08   |      178505      |     192912
      12  | 42:52.13 |    3:48.57   |      192913      |     210069
      13  | 46:40.70 |    3:01.12   |      210070      |     223656
      14  | 49:42.07 |    3:37.55   |      223657      |     239986
      15  | 53:19.62 |    3:37.33   |      239987      |     256294
      16  | 56:57.20 |    3:24.02   |      256295      |     271596
      17  | 60:21.22 |    4:36.63   |      271597      |     292359
      18  | 64:58.10 |    4:23.13   |      292360      |     312097
      19  | 69:21.23 |    4:02.41   |      312098      |     330288
      20  | 73:23.64 |    4:19.15   |      330289      |     349728
Характеристики диапазона извлечения и сообщения об ошибках
Выбранный диапазон
     Имя файла E:\ШАНСОН\SCHANSON [SBORNIKI] LOSSLESS\СЕРИЯ «SUPER HITS COLLECTION» (с) 2012-2014 [20CD]\[2012] КОРОЛЁВ ВИКТОР «SUPER HITS COLLECTION. 20 лучших песен»\Виктор Королёв - Серия «SUPER HITS COLLECTION. 20 лучших песен».wav
     Пиковый уровень 96.6 %
     Скорость извлечения 7.8 X
     Качество диапазона 100.0 %
     CRC теста 1005D559
     CRC копии 1005D559
     Копирование... OK
Ошибок не произошло
AccurateRip: сводка
Трек  1  отсутствует в базе данных
Трек  2  отсутствует в базе данных
Трек  3  отсутствует в базе данных
Трек  4  отсутствует в базе данных
Трек  5  отсутствует в базе данных
Трек  6  отсутствует в базе данных
Трек  7  отсутствует в базе данных
Трек  8  отсутствует в базе данных
Трек  9  отсутствует в базе данных
Трек 10  отсутствует в базе данных
Трек 11  отсутствует в базе данных
Трек 12  отсутствует в базе данных
Трек 13  отсутствует в базе данных
Трек 14  отсутствует в базе данных
Трек 15  отсутствует в базе данных
Трек 16  отсутствует в базе данных
Трек 17  отсутствует в базе данных
Трек 18  отсутствует в базе данных
Трек 19  отсутствует в базе данных
Трек 20  отсутствует в базе данных
Ни одного трека нет в базе AccurateRip
Конец отчёта
==== Контрольная сумма отчёта 82B508E3089502684614C47A0CE998FD137FAFFB7D4790126A165446228B8AA1 ====

Содержание индексной карты (.CUE)

REM GENRE Chanson
REM DATE 2012
REM DISCID 16123714
REM COMMENT "ExactAudioCopy v1.0b2"
PERFORMER "Виктор Королёв"
TITLE "Серия «SUPER HITS COLLECTION. 20 лучших песен»"
FILE "Виктор Королёв - Серия «SUPER HITS COLLECTION. 20 лучших песен».flac" WAVE
  TRACK 01 AUDIO
    TITLE "Я не буду ждать тебя (Музыка и слова народные, обработка Ю. Алмазов)"
    PERFORMER "Виктор Королёв"
    INDEX 01 00:00:00
  TRACK 02 AUDIO
    TITLE "Не родись красивой (С. Паради - С. Паради)"
    PERFORMER "Виктор Королёв"
    INDEX 00 04:11:20
    INDEX 01 04:12:15
  TRACK 03 AUDIO
    TITLE "Лилия (В. Королёв - В. Королёв)"
    PERFORMER "Виктор Королёв"
    INDEX 00 07:54:72
    INDEX 01 07:55:67
  TRACK 04 AUDIO
    TITLE "Я брошу жизнь свою к твоим ногам (В. Синицын - В. Звягинцев)"
    PERFORMER "Виктор Королёв"
    INDEX 00 11:20:28
    INDEX 01 11:21:23
  TRACK 05 AUDIO
    TITLE "Братишка (С. Семикопенко - С. Семикопенко)"
    PERFORMER "Виктор Королёв"
    INDEX 00 15:54:63
    INDEX 01 15:55:58
  TRACK 06 AUDIO
    TITLE "Драгоценная (В. Королёв - В. Королёв)"
    PERFORMER "Виктор Королёв"
    INDEX 00 20:19:33
    INDEX 01 20:20:28
  TRACK 07 AUDIO
    TITLE "Букет Белых роз (С. Паради - С. Паради)"
    PERFORMER "Виктор Королёв"
    INDEX 00 24:09:28
    INDEX 01 24:10:23
  TRACK 08 AUDIO
    TITLE "Ди ! Да ! Ду ! (В. Лизнекр - В. Лизнер)"
    PERFORMER "Виктор Королёв"
    INDEX 00 28:13:25
    INDEX 01 28:14:20
  TRACK 09 AUDIO
    TITLE "Рябина (В. Королёв - В. Королёв)"
    PERFORMER "Виктор Королёв"
    INDEX 00 31:41:63
    INDEX 01 31:42:57
  TRACK 10 AUDIO
    TITLE "Городские встречи (С. Наговицын - С. Наговицын)"
    PERFORMER "Виктор Королёв"
    INDEX 00 35:30:10
    INDEX 01 35:31:05
  TRACK 11 AUDIO
    TITLE "Кулончик (В. Королёв - В. Королёв)"
    PERFORMER "Виктор Королёв"
    INDEX 00 39:39:10
    INDEX 01 39:40:05
  TRACK 12 AUDIO
    TITLE "Слёзы...(В. Королёв - В. Королёв)"
    PERFORMER "Виктор Королёв"
    INDEX 00 42:51:18
    INDEX 01 42:52:13
  TRACK 13 AUDIO
    TITLE "Уходят в море корабли (Ю. Алмазов - Ю. Алмазов)"
    PERFORMER "Виктор Королёв"
    INDEX 00 46:40:01
    INDEX 01 46:40:70
  TRACK 14 AUDIO
    TITLE "Алые розы (В. Королёв - В. Королёв)"
    PERFORMER "Виктор Королёв"
    INDEX 00 49:41:12
    INDEX 01 49:42:07
  TRACK 15 AUDIO
    TITLE "Душа (В. Королёв - В. Королёв)"
    PERFORMER "Виктор Королёв"
    INDEX 00 53:18:68
    INDEX 01 53:19:62
  TRACK 16 AUDIO
    TITLE "Уголёк (А. Дмитриев - А. Дмитриев)"
    PERFORMER "Виктор Королёв"
    INDEX 00 56:56:25
    INDEX 01 56:57:20
  TRACK 17 AUDIO
    TITLE "Плачет гитара (В. Кызылов - В. Кызылов)"
    PERFORMER "Виктор Королёв"
    INDEX 00 60:20:27
    INDEX 01 60:21:22
  TRACK 18 AUDIO
    TITLE "Бокал любви (В. Королёв - В. Королёв)"
    PERFORMER "Виктор Королёв"
    INDEX 00 64:57:15
    INDEX 01 64:58:10
  TRACK 19 AUDIO
    TITLE "А на ветках снегири (В. Королёв - В. Королёв)"
    PERFORMER "Виктор Королёв"
    INDEX 00 69:20:28
    INDEX 01 69:21:23
  TRACK 20 AUDIO
    TITLE "Заново начать (К. Дмитриев - К. Дмитриев)"
    PERFORMER "Виктор Королёв"
    INDEX 00 73:22:69
    INDEX 01 73:23:64

Лог проверки качества

AUDIOCHECKER v2.0 beta (build 457) - by Dester - opdester@freemail.hu
~~~~~~~~~~~~~~~~~~~~~~~~~~~~~~~~~~
-=== DO NOT EDIT THIS FILE! ===-
Path: ...\[2012] КОРОЛЁВ ВИКТОР «SUPER HITS COLLECTION. 20 лучших песен»
1 -=- Виктор Королёв - Серия «SUPER HITS COLLECTION. 20 лучших песен».wav -=- CDDA (100%)
68911300

COVERS CD

[Профиль] [ЛС]

Создавать темы 13-Авг-2015 11:04 (спустя 30 дней)

Топик был перенесен из форума Шансон и авторская песня в форум Сhanson
sergej644
 
Кто просматривает тему:

Показать сообщения:    

Текущее время: Сегодня 06:06

Часовой пояс: GMT



Вы не можете начинать темы
Вы не можете отвечать на сообщения
Вы не можете редактировать свои сообщения
Вы не можете удалять свои сообщения
Вы не можете голосовать в опросах
Вы не можете прикреплять файлы к сообщениям
Вы не можете скачивать файлы