Виктория / Victoria (2015) BDRip 720p | iTunes

 
Автор Сообщение

BOSS ®

Пол:

Стаж: 2 года 1 месяц

Сообщений: 3735

Откуда: ODESSA



Награды: 20 (Подробнее)

Mega Seeder 4 (Количество: 1) Top Keeper 2 (Количество: 1) Top Keeper 1 (Количество: 1)
Торрент-статистика

Создавать темы 19-Май-2016 16:48

[Цитировать]

Информация о фильме
Название: Виктория
Оригинальное название: Victoria
Страна: Германия
Студия: MonkeyBoy, Deutschfilm, Radical Media
Жанр: триллер, драма, криминал
Год выпуска: 2015
Продолжительность: 02:18:38
Перевод: Профессиональный (многоголосый закадровый) iTunes
Cубтитры: Rus, Eng, Ger
Оригинальная аудиодорожка: немецкий
Режиссер: Себастьян Шиппер / Sebastian Schipper
В ролях: Лайа Коста, Фредерик Лау, Франц Роговский, Бурак Йийит, Макс Мауфф, Андре Хеннике, Анна-Лена Кленке, Ганс-Ульрих Локс, Айке, Фредерик Шульц, Адольфо Ассор
Описание: Виктория — испанская девушка, которая живет в Берлине. Однажды на выходе из клуба она знакомится с четырьмя парнями — Зонне, Боксером, Блинкером и Фусом. Ребята обещают ей показать «настоящий Берлин».

Тип релиза: BDRip 720p
Контейнер: MKV
Видео: MPEG-4 AVC, 8879 Кбит/с, 1280x534, 23,976 fps
Аудио: Rus, AC3, 384 kb/s (6 ch), 48 kHz
Аудио 2: Ger, AC3, 640 kb/s (6 ch), 48 kHz
Формат субтитров: softsub (SRT)

MediaInfo

Format : Matroska
Format version : Version 4 / Version 2
File size : 9.78 GiB
Duration : 2h 18mn
Overall bit rate : 10.1 Mbps
Movie name : Виктория. (Tonik)
Encoded date : UTC 2016-05-19 08:17:29
Writing application : mkvmerge v7.1.0 ('Good Love') 64bit built on Jul 27 2014 13:06:55
Writing library : libebml v1.3.0 + libmatroska v1.4.1
DURATION : 02:10:38.533000000
NUMBER_OF_FRAMES : 1600
NUMBER_OF_BYTES : 66641
_STATISTICS_WRITING_APP : mkvmerge v7.1.0 ('Good Love') 64bit built on Jul 27 2014 13:06:55
_STATISTICS_WRITING_DATE_UTC : 2016-05-19 08:17:29
_STATISTICS_TAGS : BPS DURATION NUMBER_OF_FRAMES NUMBER_OF_BYTES
Video
ID : 1
Format : AVC
Format/Info : Advanced Video Codec
Format profile : High@L4.1
Format settings, CABAC : Yes
Format settings, ReFrames : 12 frames
Codec ID : V_MPEG4/ISO/AVC
Bit rate : 8 879 Kbps
Width : 1 280 pixels
Height : 534 pixels
Display aspect ratio : 2.40:1
Frame rate mode : Variable
Original frame rate : 23.976 fps
Color space : YUV
Chroma subsampling : 4:2:0
Bit depth : 8 bits
Scan type : Progressive
Writing library : x264 core 148 r2638kMod 7599210
Encoding settings : cabac=1 / ref=12 / deblock=1:-3:-3 / analyse=0x3:0x133 / me=umh / subme=10 / psy=1 / fade_compensate=0.00 / psy_rd=1.10:0.00 / mixed_ref=1 / me_range=48 / chroma_me=1 / trellis=2 / 8x8dct=1 / cqm=0 / deadzone=21,11 / fast_pskip=1 / chroma_qp_offset=-2 / threads=12 / lookahead_threads=2 / sliced_threads=0 / nr=0 / decimate=1 / interlaced=0 / bluray_compat=0 / constrained_intra=0 / fgo=0 / bframes=8 / b_pyramid=2 / b_adapt=2 / b_bias=0 / direct=3 / weightb=1 / open_gop=0 / weightp=2 / keyint=250 / keyint_min=23 / scenecut=40 / intra_refresh=0 / rc=crf / mbtree=0 / crf=16.7500 / qcomp=0.60 / qpmin=0 / qpmax=69 / qpstep=4 / ip_ratio=1.30 / pb_ratio=1.20 / aq=3:0.80
Language : German
Default : Yes
Forced : No
DURATION : 02:18:38.477000000
NUMBER_OF_FRAMES : 199444
NUMBER_OF_BYTES : 9438642455
_STATISTICS_WRITING_APP : mkvmerge v7.1.0 ('Good Love') 64bit built on Jul 27 2014 13:06:55
_STATISTICS_WRITING_DATE_UTC : 2016-05-19 08:17:29
_STATISTICS_TAGS : BPS DURATION NUMBER_OF_FRAMES NUMBER_OF_BYTES
Audio #1
ID : 2
Format : AC-3
Format/Info : Audio Coding 3
Mode extension : CM (complete main)
Format settings, Endianness : Big
Codec ID : A_AC3
Duration : 2h 18mn
Bit rate mode : Constant
Bit rate : 384 Kbps
Channel(s) : 6 channels
Channel positions : Front: L C R, Side: L R, LFE
Sampling rate : 48.0 KHz
Bit depth : 16 bits
Compression mode : Lossy
Stream size : 381 MiB (4%)
Language : Russian
Default : Yes
Forced : No
Audio #2
ID : 3
Format : AC-3
Format/Info : Audio Coding 3
Mode extension : CM (complete main)
Format settings, Endianness : Big
Codec ID : A_AC3
Duration : 2h 18mn
Bit rate mode : Constant
Bit rate : 640 Kbps
Channel(s) : 6 channels
Channel positions : Front: L C R, Side: L R, LFE
Sampling rate : 48.0 KHz
Bit depth : 16 bits
Compression mode : Lossy
Stream size : 635 MiB (6%)
Language : German
Default : No
Forced : No
Text #1
ID : 4
Format : UTF-8
Codec ID : S_TEXT/UTF8
Codec ID/Info : UTF-8 Plain Text
Language : Russian
Default : No
Forced : No
Text #2
ID : 5
Format : UTF-8
Codec ID : S_TEXT/UTF8
Codec ID/Info : UTF-8 Plain Text
Title : Fremdsprachige Dialoge
Language : German
Default : No
Forced : No
Text #3
ID : 6
Format : UTF-8
Codec ID : S_TEXT/UTF8
Codec ID/Info : UTF-8 Plain Text
Language : German
Default : No
Forced : No
Text #4
ID : 7
Format : UTF-8
Codec ID : S_TEXT/UTF8
Codec ID/Info : UTF-8 Plain Text
Title : Untertitel für Gehörlose
Language : German
Default : No
Forced : No
Text #5
ID : 8
Format : UTF-8
Codec ID : S_TEXT/UTF8
Codec ID/Info : UTF-8 Plain Text
Title : Foreign Parts
Language : English
Default : No
Forced : No
Text #6
ID : 9
Format : UTF-8
Codec ID : S_TEXT/UTF8
Codec ID/Info : UTF-8 Plain Text
Language : English
Default : No
Forced : No
Menu
00:00:00.000 : en:00:00:00.000
00:10:21.996 : en:00:10:21.996
00:21:48.724 : en:00:21:48.724
00:32:57.100 : en:00:32:57.100
00:42:58.242 : en:00:42:58.242
00:54:49.745 : en:00:54:49.745
01:05:22.919 : en:01:05:22.919
01:15:35.281 : en:01:15:35.281
01:27:03.885 : en:01:27:03.885
01:37:57.288 : en:01:37:57.288
01:48:43.225 : en:01:48:43.225
01:57:24.496 : en:01:57:24.496
02:06:08.436 : en:02:06:08.436
02:14:39.196 : en:02:14:39.196

Скриншоты

[Профиль] [ЛС]
Показать сообщения:    

Текущее время: Сегодня 00:34

Часовой пояс: GMT



Вы не можете начинать темы
Вы не можете отвечать на сообщения
Вы не можете редактировать свои сообщения
Вы не можете удалять свои сообщения
Вы не можете голосовать в опросах
Вы не можете прикреплять файлы к сообщениям
Вы не можете скачивать файлы