Виктория / Victoria (Себастьян Шиппер / Sebastian Schipper) [2015, Германия, триллер, драма, криминал, BDRip-AVC] MVO + Original (Ger) + Sub (Eng)

 
Автор Сообщение

TorrentFilm ®

Пол:

Стаж: 2 года

Сообщений: 7741



Награды: Нет

Торрент-статистика

Создавать темы 01-Дек-2015 00:11

[Цитировать]

Виктория
Victoria
«Одна ночь. Один город. Одна девушка. Один кадр»

Страна: Германия
Жанр: триллер, драма, криминал
Год выпуска: 2015
Продолжительность: 02:18:38
Перевод: Профессиональный (многоголосый, закадровый)
Субтитры: английские
Оригинальная аудиодорожка: Немецкий
Режиссер: Себастьян Шиппер / Sebastian Schipper
В ролях: Лайа Коста, Фредерик Лау, Франц Роговский, Бурак Йийит, Макс Мауфф, Андре Хеннике, Анна-Лена Кленке, Ганс-Ульрих Локс, Айке Фредерик Шульц, Адольфо Ассор, Ян Брюштедт, Амбар де ла Хорра
Описание:
Виктория - испанская девушка, которая живет в Берлине. Однажды на выходе из клуба она знакомится с четырьмя парнями - Зонне, Боксером, Блинкером и Фусом. Ребята обещают ей показать «настоящий Берлин».
Но прогулкой по ночному городу дело не ограничивается. Оказывается, парням нужно разобраться со старым долгом, а поскольку один из них слишком пьян, они просят Викторию побыть водителем. Релиз:
Автор рипа: Stalker oK
Сэмпл
Качество видео: BDRip-AVC [Blu-ray Remux 1080p HDSky]
Формат видео: MKV
Видео кодек: AVC
Аудио кодек: AC3
Видео: 1114 Кбит/сек, 912x380 (2.40:1), 23,976 кадр/сек, AVC
Аудио №1: русский, 192 Кбит/сек, 48 КГц, 16 бит, 2.0, AC3
Аудио №2: немецкий, 192 Кбит/сек, 48 КГц, 16 бит, 2.0, AC3
Навигация по главам: есть

MediaInfo

General
Unique ID : 253164880092791184423940229779086621307 (0xBE75C847AEC4D04FBEC4C9A615EFBA7B)
Complete name : M:\Rips\Victoria\Victoria.2015.BDRip-AVC.MVO.1.45Gb...stalkerok.new-team.mkv
Format : Matroska
File size : 1.45 GiB
Duration : 2h 18mn
Overall bit rate : 1 499 Kbps
Movie name : Victoria (2015) (New-Team) (Rip by Stalker oK)
Encoded date : UTC 2015-11-29 11:39:43
Writing application : mkvmerge v7.9.0 ('Birds') 64bit
Writing library : libebml v1.3.1 + libmatroska v1.4.2
Video
ID : 1
Format : AVC
Format/Info : Advanced Video Codec
Format profile : High@L4.1
Format settings, CABAC : Yes
Format settings, ReFrames : 13 frames
Codec ID : V_MPEG4/ISO/AVC
Duration : 2h 18mn
Bit rate : 1 114 Kbps
Width : 912 pixels
Height : 380 pixels
Display aspect ratio : 2.40:1
Frame rate : 23.976 fps
Color space : YUV
Chroma subsampling : 4:2:0
Bit depth : 8 bits
Scan type : Progressive
Bits/(Pixel*Frame) : 0.134
Stream size : 1.05 GiB (72%)
Title : Victoria (2015) (New-Team) (Rip by Stalker oK)
Writing library : x264 core 146 r2538kMod 121396c
Encoding settings : cabac=1 / ref=13 / deblock=1:-3:-3 / analyse=0x3:0x133 / me=umh / subme=11 / psy=1 / fade_compensate=0.00 / psy_rd=1.00:0.10 / mixed_ref=1 / me_range=48 / chroma_me=1 / trellis=2 / 8x8dct=1 / cqm=0 / deadzone=21,11 / fast_pskip=0 / chroma_qp_offset=-3 / threads=12 / lookahead_threads=2 / sliced_threads=0 / nr=0 / decimate=0 / interlaced=0 / bluray_compat=0 / constrained_intra=0 / fgo=0 / bframes=15 / b_pyramid=2 / b_adapt=2 / b_bias=0 / direct=3 / weightb=1 / open_gop=0 / weightp=2 / keyint=240 / keyint_min=23 / scenecut=40 / intra_refresh=0 / rc_lookahead=60 / rc=2pass / mbtree=0 / bitrate=1114 / ratetol=1.0 / qcomp=0.70 / qpmin=0 / qpmax=69 / qpstep=4 / cplxblur=20.0 / qblur=0.5 / vbv_maxrate=50000 / vbv_bufsize=62500 / nal_hrd=none / filler=0 / ip_ratio=1.40 / pb_ratio=1.30 / aq=3:0.95
Audio #1
ID : 2
Format : AC-3
Format/Info : Audio Coding 3
Mode extension : CM (complete main)
Codec ID : A_AC3
Duration : 2h 18mn
Bit rate mode : Constant
Bit rate : 192 Kbps
Channel(s) : 2 channels
Channel positions : Front: L R
Sampling rate : 48.0 KHz
Bit depth : 16 bits
Compression mode : Lossy
Stream size : 190 MiB (13%)
Language : Russian
Audio #2
ID : 3
Format : AC-3
Format/Info : Audio Coding 3
Mode extension : CM (complete main)
Codec ID : A_AC3
Duration : 2h 18mn
Bit rate mode : Constant
Bit rate : 192 Kbps
Channel(s) : 2 channels
Channel positions : Front: L R
Sampling rate : 48.0 KHz
Bit depth : 16 bits
Compression mode : Lossy
Stream size : 190 MiB (13%)
Language : German
Text
ID : 4
Format : UTF-8
Codec ID : S_TEXT/UTF8
Codec ID/Info : UTF-8 Plain Text
Language : English
Menu
00:00:00.000 : en:Chapter 1
00:10:21.995 : en:Chapter 2
00:21:48.723 : en:Chapter 3
00:32:57.099 : en:Chapter 4
00:42:58.242 : en:Chapter 5
00:54:49.744 : en:Chapter 6
01:05:22.918 : en:Chapter 7
01:15:35.279 : en:Chapter 8
01:27:03.885 : en:Chapter 9
01:37:57.287 : en:Chapter 10
01:48:43.225 : en:Chapter 11
01:57:24.494 : en:Chapter 12
02:06:08.435 : en:Chapter 13
02:14:39.195 : en:Chapter 14

Скриншоты

[Профиль] [ЛС]
Показать сообщения:    

Текущее время: Сегодня 10:32

Часовой пояс: GMT



Вы не можете начинать темы
Вы не можете отвечать на сообщения
Вы не можете редактировать свои сообщения
Вы не можете удалять свои сообщения
Вы не можете голосовать в опросах
Вы не можете прикреплять файлы к сообщениям
Вы не можете скачивать файлы