Виктория / Victoria (2015) ВDRip 1080р | P

 
Автор Сообщение

достали все ®

Пол:

Стаж: 1 год 8 месяцев

Сообщений: 6545



Награды: 12 (Подробнее)

Top Releaser 3 (Количество: 1) Mega Seeder 5 (Количество: 1) Mega Seeder 4 (Количество: 1)
Торрент-статистика

Создавать темы 28-Ноя-2015 04:20

[Цитировать]

Название: Виктория
Оригинальное название: Victoria
Год выпуска: 2015
Жанр: Триллер, драма, криминал
Выпущено: Германия, MonkeyBoy, Deutschfilm, Radical Media
Режиссер: Себастьян Шиппер
В ролях: Лайа Коста, Фредерик Лау, Франц Роговский, Бурак Йийит, Макс Мауфф, Андре Хеннике, Анна-Лена Кленке, Ганс-Ульрих Локс, Айке, Фредерик Шульц, Адольфо Ассор
О фильме: Виктория — испанская девушка, которая живет в Берлине. Однажды на выходе из клуба она знакомится с четырьмя парнями — Зонне, Боксером, Блинкером и Фусом. Ребята обещают ей показать «настоящий Берлин». Но прогулкой по ночному городу дело не ограничивается. Оказывается, парням нужно разобраться со старым долгом, а поскольку один из них слишком пьян, они просят Викторию побыть водителем.

Качество: ВDRip 1080р
Видео: MPEG-4-AVC, 8646 Кбит/с, 1920x800
Аудио: (AC3, 2 ch, 384 Кбит/с), немецкий (DTS, 6 ch, 448 Кбит/с)
Продолжительность: 02:18:38
Озвучивание: Профессиональное многоголосное- Официальный звук
Субтитры: Английские
Семпл

Скриншоты

MediaInfo

General
Unique ID : 213406965363598073553793510018275540958 (0xA08CAFBE08FFD09AB4FF6C4BADAAFFDE)
Complete name : D:ВидеоV1ktOr1a.2015.P.BDRip.1080p.mkv
Format : Matroska
Format version : Version 2
File size : 10.2 GiB
Duration : 2h 18mn
Overall bit rate : 10.5 Mbps
Encoded date : UTC 2015-11-27 19:13:56
Writing application : mkvmerge v8.3.0 ('Over the Horizon') 64bit
Writing library : libebml v1.3.1 + libmatroska v1.4.2
Video
ID : 1
Format : AVC
Format/Info : Advanced Video Codec
Format profile : High@L4.1
Format settings, CABAC : Yes
Format settings, ReFrames : 5 frames
Codec ID : V_MPEG4/ISO/AVC
Duration : 2h 18mn
Bit rate : 8 646 Kbps
Width : 1 920 pixels
Height : 800 pixels
Display aspect ratio : 2.40:1
Frame rate mode : Constant
Frame rate : 23.976 fps
Color space : YUV
Chroma subsampling : 4:2:0
Bit depth : 8 bits
Scan type : Progressive
Bits/(Pixel*Frame) : 0.235
Stream size : 8.17 GiB (80%)
Writing library : x264 core 148 r2638 7599210
Encoding settings : cabac=1 / ref=5 / deblock=1:0:0 / analyse=0x3:0x133 / me=umh / subme=7 / psy=1 / psy_rd=1.00:0.00 / mixed_ref=1 / me_range=16 / chroma_me=1 / trellis=1 / 8x8dct=1 / cqm=0 / deadzone=21,11 / fast_pskip=0 / chroma_qp_offset=-2 / threads=6 / lookahead_threads=1 / sliced_threads=0 / nr=0 / decimate=1 / interlaced=0 / bluray_compat=0 / constrained_intra=0 / bframes=3 / b_pyramid=2 / b_adapt=2 / b_bias=0 / direct=3 / weightb=1 / open_gop=0 / weightp=2 / keyint=250 / keyint_min=23 / scenecut=40 / intra_refresh=0 / rc_lookahead=50 / rc=2pass / mbtree=1 / bitrate=8646 / ratetol=1.0 / qcomp=0.60 / qpmin=0 / qpmax=69 / qpstep=4 / cplxblur=20.0 / qblur=0.5 / ip_ratio=1.40 / aq=1:1.00
Language : English
Default : Yes
Forced : No
Audio #1
ID : 2
Format : AC-3
Format/Info : Audio Coding 3
Mode extension : CM (complete main)
Format settings, Endianness : Big
Codec ID : A_AC3
Duration : 2h 18mn
Bit rate mode : Constant
Bit rate : 384 Kbps
Channel(s) : 2 channels
Channel positions : Front: L R
Sampling rate : 48.0 KHz
Bit depth : 16 bits
Compression mode : Lossy
Stream size : 381 MiB (4%)
Language : Russian
Default : Yes
Forced : No
Audio #2
ID : 3
Format : DTS
Format/Info : Digital Theater Systems
Mode : 16
Format settings, Endianness : Big
Codec ID : A_DTS
Duration : 2h 18mn
Bit rate mode : Constant
Bit rate : 1 509 Kbps
Channel(s) : 6 channels
Channel positions : Front: L C R, Side: L R, LFE
Sampling rate : 48.0 KHz
Bit depth : 24 bits
Compression mode : Lossy
Stream size : 1.46 GiB (14%)
Language : German
Default : No
Forced : No
Text
ID : 4
Format : UTF-8
Codec ID : S_TEXT/UTF8
Codec ID/Info : UTF-8 Plain Text
Language : English
Default : Yes
Forced : Yes
Menu
00:00:00.000 : en:00:00:00.000
00:10:21.996 : en:00:10:21.996
00:21:48.724 : en:00:21:48.724
00:32:57.100 : en:00:32:57.100
00:42:58.242 : en:00:42:58.242
00:54:49.745 : en:00:54:49.745
01:05:22.919 : en:01:05:22.919
01:15:35.281 : en:01:15:35.281
01:27:03.885 : en:01:27:03.885
01:37:57.288 : en:01:37:57.288
01:48:43.225 : en:01:48:43.225
01:57:24.496 : en:01:57:24.496
02:06:08.436 : en:02:06:08.436
02:14:39.196 : en:02:14:39.196
[Профиль] [ЛС]
Показать сообщения:    

Текущее время: Сегодня 18:42

Часовой пояс: GMT



Вы не можете начинать темы
Вы не можете отвечать на сообщения
Вы не можете редактировать свои сообщения
Вы не можете удалять свои сообщения
Вы не можете голосовать в опросах
Вы не можете прикреплять файлы к сообщениям
Вы не можете скачивать файлы