Вики, маленький викинг 2 в 3Д / Wickie auf großer Fahrt / Wickie and the Treasure of the Gods 3D (Кристиан Диттер / Christian Ditter) [2011, Приключения, Комедия, Боевик, Семейный, BDrip-AVC] VO, Half OverUnder / Вертикальная анаморфная стереопа

 
Автор Сообщение

TorrentFilm ®

Пол:

Стаж: 2 года

Сообщений: 7741



Награды: Нет

Торрент-статистика

Создавать темы 01-Янв-2016 00:21

[Цитировать]

-Вики, маленький викинг 2
Wickie auf großer Fahrt
Wickie and the Treasure of the Gods

Год выпуска: 2011
Страна: Германия (Constantin Film, RatPack)
Жанр: Приключения, Комедия, Боевик, Семейный
Продолжительность: 01:36:16
Озвучивание: Любительское одноголосое закадровое (Вячеслав Прошин)
Перевод: Алексей Крылов
Монтаж и сведение звука: Алексей Прошин
Режиссер: Кристиан Диттер / Christian Ditter
В ролях: Йонас Хеммерле (Wickie), Вальдемар Кобус (Halvar), Валерия Эйсенбарт (Svenja), Николас Ромм (Tjure), Кристиан Кох (Snorre), Олаф Кратке (Urobe), Майк Маас (Gorm), Патрик Райхель (Ulme), Йёрг Моуккадам (Faxe), Ядеа (Ylvi), Занне Шнапп (Ylva), Ева Пэдберг (Walküren-Anführerin), Элла-Мария Голлмер (Walküren-Assistentin)
Описание: Вождь клана викингов Хальвар с нетерпением ждет, когда его сын Вики станет таким же сильным и могучим, как он. Но в отличие от своих соплеменников, Вики грубой силе предпочитает ум и смекалку. После того как Хальвара похищает его извечный враг Свен, маленького Вики выбирают вождем клана. Теперь он должен отправиться на поиски отца, а заодно по пути попытаться разыскать легендарный молот Тора.-Премьера (мир): 29 сентября 2011
Бюджет: €11 000 000

. .
-Качество: BDRip (by Ash61)
Контейнер: MKV
Формат 3D: Half OverUnder / Вертикальная анаморфная стереопара
Порядок ракурсов: левый ракурс первый
Видео кодек: x264
Аудио кодек: AC3-Видео: AVC / 23,976 fps / 1920х1080p / 14.3 Mbps
Аудио:
#1 - Русский / AC3 / 44.1 KHz / 5.1 ch / 448 Kbps (VO - Вячеслав Прошин)
#2 - Английский / AC3 / 48 KHz / 5.1 ch / 640 Kbps
Отдельным файлом: Немецкий / AC3 / 48 KHz / 5.1 ch / 448 Kbps (Original)
Субтитры: Внешние (SRT UTF-8) Русские Полные (prostotak)

MediaInfo

General
Unique ID : 239967233878704480742289244729922831452 (0xB4880215747A6D7393AB458DEC0C445C)
Complete name : E:\WickieAufGrosserFahrt(2011)3D-halfOU(Ash61)VO\WickieAufGrosserFahrt(2011)3D-halfOU(Ash61)VO.mkv
Format : Matroska
Format version : Version 2
File size : 10.6 GiB
Duration : 1h 36mn
Overall bit rate : 15.7 Mbps
Movie name : Вики, маленький викинг 2 / Wickie auf großer Fahrt / Wickie and the Treasure of the Gods (2011) 3D
Encoded date : UTC 2014-01-12 16:09:39
Writing application : mkvmerge v5.8.0 ('No Sleep / Pillow') built on Sep 2 2012 15:37:04
Writing library : libebml v1.2.3 + libmatroska v1.3.0
Video
ID : 1
Format : AVC
Format/Info : Advanced Video Codec
Format profile : High@L4.1
Format settings, CABAC : Yes
Format settings, ReFrames : 4 frames
Codec ID : V_MPEG4/ISO/AVC
Duration : 1h 36mn
Bit rate : 14.3 Mbps
Width : 1 920 pixels
Height : 1 080 pixels
Display aspect ratio : 16:9
Frame rate mode : Constant
Frame rate : 23.976 fps
Color space : YUV
Chroma subsampling : 4:2:0
Bit depth : 8 bits
Scan type : Progressive
Bits/(Pixel*Frame) : 0.288
Stream size : 9.64 GiB (91%)
Title : BDRip by Ash61
Writing library : x264 core 129 r2245 bc13772
Encoding settings : cabac=1 / ref=4 / deblock=1:-3:-3 / analyse=0x3:0x113 / me=umh / subme=10 / psy=1 / psy_rd=1.00:0.15 / mixed_ref=1 / me_range=32 / chroma_me=1 / trellis=2 / 8x8dct=1 / cqm=0 / deadzone=21,11 / fast_pskip=1 / chroma_qp_offset=-3 / threads=12 / lookahead_threads=2 / sliced_threads=0 / nr=0 / decimate=1 / interlaced=0 / bluray_compat=0 / constrained_intra=0 / bframes=8 / b_pyramid=2 / b_adapt=2 / b_bias=0 / direct=3 / weightb=1 / open_gop=0 / weightp=2 / keyint=250 / keyint_min=23 / scenecut=40 / intra_refresh=0 / rc_lookahead=60 / rc=crf / mbtree=1 / crf=17.0 / qcomp=0.70 / qpmin=0 / qpmax=69 / qpstep=4 / vbv_maxrate=40000 / vbv_bufsize=30000 / crf_max=0.0 / nal_hrd=none / frame-packing=4 / ip_ratio=1.40 / aq=1:0.70
Language : German
Default : Yes
Forced : No
Audio #1
ID : 2
Format : AC-3
Format/Info : Audio Coding 3
Mode extension : CM (complete main)
Format settings, Endianness : Big
Codec ID : A_AC3
Duration : 1h 36mn
Bit rate mode : Constant
Bit rate : 448 Kbps
Channel(s) : 6 channels
Channel positions : Front: L C R, Side: L R, LFE
Sampling rate : 44.1 KHz
Bit depth : 16 bits
Compression mode : Lossy
Stream size : 308 MiB (3%)
Title : Любительский одноголосый закадровый - Вячеслав Прошин
Language : Russian
Default : Yes
Forced : No
Audio #2
ID : 3
Format : AC-3
Format/Info : Audio Coding 3
Mode extension : CM (complete main)
Format settings, Endianness : Big
Codec ID : A_AC3
Duration : 1h 36mn
Bit rate mode : Constant
Bit rate : 640 Kbps
Channel(s) : 6 channels
Channel positions : Front: L C R, Side: L R, LFE
Sampling rate : 48.0 KHz
Bit depth : 16 bits
Compression mode : Lossy
Stream size : 441 MiB (4%)
Language : English
Default : No
Forced : No

Для оценки 3Д - Анимированные скрины












Техн. детали съёмки:

  • Съёмки: 30 августа 2010 — 20 ноября 2010
  • Формат изображения: 2.35 : 1
  • Камера: Arri Alexa, Zeiss Master Prime Lenses (Stereotec 3D rigs)
    P+S Freestyle 3D Rig (steadicam shots)
  • Формат копии: D-Cinema (3-D version)
  • Формат съёмок: SxS Pro
[Профиль] [ЛС]
Показать сообщения:    

Текущее время: Сегодня 05:19

Часовой пояс: GMT



Вы не можете начинать темы
Вы не можете отвечать на сообщения
Вы не можете редактировать свои сообщения
Вы не можете удалять свои сообщения
Вы не можете голосовать в опросах
Вы не можете прикреплять файлы к сообщениям
Вы не можете скачивать файлы