Викинги / Vikings (2015) WEB-DL [720p] (сезон 3, серии 1-10 из 10) (AlexFilm)

 
Автор Сообщение

достали все ®

Пол:

Стаж: 1 год 8 месяцев

Сообщений: 6581



Награды: 12 (Подробнее)

Mega Releaser 1 (Количество: 1) Top Releaser 3 (Количество: 1) За внесенный вклад в развитие сайта (Количество: 1)
Торрент-статистика

Создавать темы 25-Апр-2015 09:24

[Цитировать]

-Викинги / Vikings (2015) WEB-DL [720p] (сезон 3, серии 1-10 из 10)- Производство: Ирландия, Канада
Жанр: боевик, драма, история
Режиссер: Йохан Ренк, Киаран Доннелли, Кен Джиротти
Актеры: Трэвис Фиммел, Клайв Стэнден, Гэбриел Бирн, Кэтрин Уинник, Джессалин Гилсиг, Джордж Благден, Густаф Скарсгард, Торбьорн Харр, Владимир Кулих, Донал Лог, Айван Кэй, Мод Хирст, Эрик Хиггинс, Герард Маккарти, Юко Ахола, Эми Де Брюн, Сэм Смит, Билл Гибсон, Кевин Мюррэй и др.
Описание:
Сериал рассказывает об отряде викингов Рагнара. Он восстал, чтобы стать королём племён викингов. Норвежская легенда гласит, что он был прямым потомком Одина, бога войны и воинов.

Продолжительность: ~00:45:00 серия
Качество видео: WEB-DL 720p
Перевод: Многоголосый закадровый, профессиональный - AlexFilm
Автор перевода: Константин Кривоногов
Озвучка: Евгения Тихонова, Александр Воронов, Михаил Суслов, Александр Долгов, Александр Дасевич
Видеокодек: AVC
Формат: MKV
Битрейт видео: ~3 933 Kbps
Размер кадра: 1280x718 (16:9)
Аудио Rus: AC-3, 48.0 KHz, 6 ch, 384 Kbps, CBR - многоголосый закадровый
Аудио Eng: AC-3, 48.0 KHz, 6 ch, 384 Kbps, CBR - оригинал

MediaInfo

General
Complete name : F:\Сериал\раздача\Vikings.S03.WEB-DL.720p.AlexFilm\Vikings.s03e01.WEB-DL.720p.Rus.Eng.AlexFilm.mkv
Format : Matroska
File size : 1.51 GiB
Duration : 45mn 10s
Overall bit rate : 4 797 Kbps
Movie name : Vikings 3x01 Mercenary @ AlexFilm
Encoded date : UTC 2015-02-20 17:06:52
Writing application : mkvmerge v6.6.0 ('The Edge Of The In Between') built on Dec 1 2013 17:55:00
Writing library : libebml v1.3.0 + libmatroska v1.4.1
Video
ID : 1
Format : AVC
Format/Info : Advanced Video Codec
Format profile : [url=mailto:High@L3.1]High@L3.1[/url]
Format settings, CABAC : No
Format settings, ReFrames : 2 frames
Muxing mode : Container profile=Unknown@3.1
Codec ID : V_MPEG4/ISO/AVC
Duration : 45mn 10s
Bit rate mode : Variable
Bit rate : 3 933 Kbps
Width : 1 280 pixels
Height : 718 pixels
Display aspect ratio : 16:9
Frame rate : 23.976 fps
Color space : YUV
Chroma subsampling : 4:2:0
Bit depth : 8 bits
Scan type : Progressive
Bits/(Pixel*Frame) : 0.179
Stream size : 1.24 GiB (82%)
Language : English
Color primaries : BT.709-5, BT.1361, IEC 61966-2-4, SMPTE RP177
Transfer characteristics : BT.709-5, BT.1361
Matrix coefficients : BT.709-5, BT.1361, IEC 61966-2-4 709, SMPTE RP177
Audio #1
ID : 2
Format : AC-3
Format/Info : Audio Coding 3
Mode extension : CM (complete main)
Codec ID : A_AC3
Duration : 45mn 10s
Bit rate mode : Constant
Bit rate : 384 Kbps
Channel(s) : 6 channels
Channel positions : Front: L C R, Side: L R, LFE
Sampling rate : 48.0 KHz
Bit depth : 16 bits
Stream size : 124 MiB (8%)
Title : DD5.1 AlexFilm
Language : Russian
Audio #2
ID : 3
Format : AC-3
Format/Info : Audio Coding 3
Mode extension : CM (complete main)
Codec ID : A_AC3
Duration : 45mn 10s
Bit rate mode : Constant
Bit rate : 384 Kbps
Channel(s) : 6 channels
Channel positions : Front: L C R, Side: L R, LFE
Sampling rate : 48.0 KHz
Bit depth : 16 bits
Stream size : 124 MiB (8%)
Title : DD5.1 Original
Language : English

Список серий


01. Наёмник (Mercenary)
02. Странник (The Wanderer)
03. Путь воина (Warrior's Fate)
04. Шрам (Scarred)
05. Узурпатор (The Usurper)
06. Рождённый заново (Born Again)
07. Париж (Paris)
08. К воротам! (To the Gates!)
09. Переломный момент (Breaking Point)
10. Мёртвые (The Dead)

Скриншоты:
[Профиль] [ЛС]
Кто просматривает тему:

Форум Тема Автор Размер
BBC BBC: Неизвестные викинги. Под парусами драккара / The Vikings Uncovered [серии 1-2 из 2] (Harvey Lilley) [2016 г., Документальный, история, археология, исследования, SATRip] skorpionN 1.51 GB
Viasat History Viasat History: Викинги / Vikings [серии 1-5 из 5] (Paul Russell and Andrea Vogt) [2014 г., Документально-постановочный, история, исследования, SATRip] skorpionN 3.15 GB
Viasat History Viasat History: Женщины-викинги / Die Frauen der Wikinger (Viking Women) [сезон 1 серии 1-2 из2] (Йоав Пэриш / Yoav Parish, Юдит Фёлькер / Judith Voelker, Kai Christi... skorpionN 1.45 GB
Фильмы 2009 года Вальгалла: Сага о викинге / Valhalla Rising (Николас Виндинг Рефн / Nicolas Winding Refn) [2009, Дания, Великобритания, притча, приключения, HDRip] MVO (Россия) + MVO (Велес) + Original Eng TorrentFilm 1.45 GB
Фильмы 2009 года Вальгалла: Сага о викинге / Вознесение в Вальгаллу / Valhalla Rising (2009) BDRip Russian Mafia 1.45 GB
Фильмы 2009 года Вальгалла: Сага о викинге / Вознесение в Вальгаллу / Valhalla Rising (Николас Виндинг Рёфн / Nicolas Winding Refn) [2009 г., Притча, драма, HDRip-AVC] MVO + Eng + Sub rus eng Russian Mafia 1.45 GB
Зарубежные Вики, маленький викинг 2 в 3Д / Wickie auf großer Fahrt / Wickie and the Treasure of the Gods 3D (Кристиан Диттер / Christian Ditter) [2011, Приключения, комедия, боевик, BDremux, 1080p] BD3D TorrentFilm 22.38 GB
Зарубежные Вики, маленький викинг 2 в 3Д / Wickie auf großer Fahrt / Wickie and the Treasure of the Gods 3D (Кристиан Диттер / Christian Ditter) [2011, Приключения, Комедия, Боевик, Семейный, BDrip-AVC]... TorrentFilm 10.88 GB
Показать сообщения:    

Текущее время: Сегодня 18:29

Часовой пояс: GMT



Вы не можете начинать темы
Вы не можете отвечать на сообщения
Вы не можете редактировать свои сообщения
Вы не можете удалять свои сообщения
Вы не можете голосовать в опросах
Вы не можете прикреплять файлы к сообщениям
Вы не можете скачивать файлы