Викинги / Northmen - A Viking Saga (2014) BDRip 1080p | iTunes

 
Автор Сообщение

sergej644 ®

Пол:

Стаж: 4 года 11 месяцев

Сообщений: 6046

Откуда: Soviet Union



Награды: Нет

Торрент-статистика

Создавать темы 26-Фев-2015 21:31

[Цитировать]

Оригинальное название: Northmen - A Viking Saga
Название: Викинги
Жанр: Боевик, приключения, фентези
Режиссёр: Клаудио Фах
Год: 2014
В ролях: Джеймс Нортон, Райан Квантен, Чарли Мерфи, Эд Скрейн, Том Хоппер, Лео Грегори, Кен Дюкен, Анатоль Таубман, Николас Расенти, Йохан Хегг

.. Группа викингов - оказалась выброшенной на побережье в тылу врага после того, как в ужасном шторме их судно пошло ко дну. Их единственный шанс выжить - это найти путь к поселению викингов. Но для этого им придется пересечь незнакомые и враждебные земли, на которых они никогда не были...
Страна: Швейцария, Германия, ЮАР
Продолжительность: 01:37
Контейнер: MKV
Перевод: Дублированный (iTunes)
Кодек: MPEG-4 (AVC)
Качество: BDRip
Видео: 9376 Кбит/с, 1920x808
Звук: Русский (AC3, 6 ch, 384 Кбит/с),
Английский (DTS, 6 ch, 1510 Кбит/с)
Субтитры: Отсутствуют
-

Mediainfo:

Общее
Уникальный идентификатор : 239217905405025718490593722859066648858 (0xB3F7B1567235675992EA08B638DA691A)
Полное имя : Викинги Northmen - A Viking Saga (2014) BDRip 1080pNorthmen.A.Viking.Saga.2014.1080p.mkv
Формат : Matroska
Версия формата : Version 4 / Version 2
Размер файла : 7,86 Гбайт
Продолжительность : 1 ч. 37 м.
Общий поток : 11,5 Мбит/сек
Дата кодирования : UTC 2015-02-19 23:06:31
Программа кодирования : mkvmerge v7.6.0 ('Garden of Dreams') 64bit built on Feb 8 2015 13:04:34
Библиотека кодирования : libebml v1.3.1 + libmatroska v1.4.2
DURATION : 01:37:47.648000000
NUMBER_OF_FRAMES : 183364
NUMBER_OF_BYTES : 281647104
_STATISTICS_WRITING_APP : mkvmerge v7.6.0 ('Garden of Dreams') 64bit built on Feb 8 2015 13:04:34
_STATISTICS_WRITING_DATE_UTC : 2015-02-19 23:06:31
_STATISTICS_TAGS : BPS DURATION NUMBER_OF_FRAMES NUMBER_OF_BYTES
Видео
Идентификатор : 1
Формат : AVC
Формат/Информация : Advanced Video Codec
Профиль формата : High@L4.1
Параметр CABAC формата : Да
Параметр ReFrames формата : 5 кадров
Идентификатор кодека : V_MPEG4/ISO/AVC
Продолжительность : 1 ч. 37 м.
Битрейт : 9375 Кбит/сек
Ширина : 1920 пикселей
Высота : 808 пикселей
Соотношение сторон : 2,40:1
Режим частоты кадров : Постоянный
Частота кадров : 24,000 кадра/сек
Цветовое пространство : YUV
Субдискретизация насыщенности : 4:2:0
Битовая глубина : 8 бит
Тип развёртки : Прогрессивная
Бит/(Пиксели*Кадры) : 0.252
Размер потока : 6,41 Гбайт (82%)
Библиотека кодирования : x264 core 144 r2525 40bb568
Настройки программы : cabac=1 / ref=5 / deblock=1:-1:-1 / analyse=0x3:0x133 / me=umh / subme=7 / psy=1 / psy_rd=1.00:0.15 / mixed_ref=1 / me_range=16 / chroma_me=1 / trellis=1 / 8x8dct=1 / cqm=0 / deadzone=21,11 / fast_pskip=0 / chroma_qp_offset=-3 / threads=18 / lookahead_threads=3 / sliced_threads=0 / nr=0 / decimate=1 / interlaced=0 / bluray_compat=0 / constrained_intra=0 / bframes=3 / b_pyramid=2 / b_adapt=1 / b_bias=0 / direct=1 / weightb=1 / open_gop=0 / weightp=2 / keyint=250 / keyint_min=24 / scenecut=40 / intra_refresh=0 / rc_lookahead=40 / rc=crf / mbtree=1 / crf=20.0 / qcomp=0.60 / qpmin=0 / qpmax=69 / qpstep=4 / ip_ratio=1.40 / aq=1:1.00
Default : Да
Forced : Нет
Аудио #1
Идентификатор : 2
Формат : AC-3
Формат/Информация : Audio Coding 3
Расширение режима : CM (complete main)
Параметр Endianness формата : Big
Идентификатор кодека : A_AC3
Продолжительность : 1 ч. 37 м.
Вид битрейта : Постоянный
Битрейт : 384 Кбит/сек
Каналы : 6 каналов
Расположение каналов : Front: L C R, Side: L R, LFE
Частота : 48,0 КГц
Битовая глубина : 16 бит
Метод сжатия : С потерями
Размер потока : 269 Мбайт (3%)
Язык : Russian
Default : Да
Forced : Нет
Аудио #2
Идентификатор : 3
Формат : DTS
Формат/Информация : Digital Theater Systems
Идентификатор кодека : A_DTS
Продолжительность : 1 ч. 37 м.
Вид битрейта : Постоянный
Битрейт : 1510 Кбит/сек
Каналы : 6 каналов
Расположение каналов : Front: L C R, Side: L R, LFE
Частота : 48,0 КГц
Битовая глубина : 24 бит
Метод сжатия : С потерями
Размер потока : 1,03 Гбайт (13%)
Язык : English
Default : Нет
Forced : Нет
Меню
00:00:00.000 : en:00:00:00.000
00:06:56.708 : en:00:06:56.708
00:15:00.167 : en:00:15:00.167
00:23:58.333 : en:00:23:58.333
00:31:54.458 : en:00:31:54.458
00:38:09.458 : en:00:38:09.458
00:48:29.625 : en:00:48:29.625
00:54:09.875 : en:00:54:09.875
01:02:33.625 : en:01:02:33.625
01:09:50.167 : en:01:09:50.167
01:18:46.292 : en:01:18:46.292
01:27:46.958 : en:01:27:46.958
- --
[Профиль] [ЛС]
Кто просматривает тему:

Форум Тема Автор Размер
BBC BBC: Неизвестные викинги. Под парусами драккара / The Vikings Uncovered [серии 1-2 из 2] (Harvey Lilley) [2016 г., Документальный, история, археология, исследования, SATRip] skorpionN 1.51 GB
Viasat History Viasat History: Викинги / Vikings [серии 1-5 из 5] (Paul Russell and Andrea Vogt) [2014 г., Документально-постановочный, история, исследования, SATRip] skorpionN 3.15 GB
Viasat History Viasat History: Женщины-викинги / Die Frauen der Wikinger (Viking Women) [сезон 1 серии 1-2 из2] (Йоав Пэриш / Yoav Parish, Юдит Фёлькер / Judith Voelker, Kai Christi... skorpionN 1.45 GB
Фильмы 2009 года Вальгалла: Сага о викинге / Valhalla Rising (Николас Виндинг Рефн / Nicolas Winding Refn) [2009, Дания, Великобритания, притча, приключения, HDRip] MVO (Россия) + MVO (Велес) + Original Eng TorrentFilm 1.45 GB
Фильмы 2009 года Вальгалла: Сага о викинге / Вознесение в Вальгаллу / Valhalla Rising (2009) BDRip Russian Mafia 1.45 GB
Фильмы 2009 года Вальгалла: Сага о викинге / Вознесение в Вальгаллу / Valhalla Rising (Николас Виндинг Рёфн / Nicolas Winding Refn) [2009 г., Притча, драма, HDRip-AVC] MVO + Eng + Sub rus eng Russian Mafia 1.45 GB
Зарубежные Вики, маленький викинг 2 в 3Д / Wickie auf großer Fahrt / Wickie and the Treasure of the Gods 3D (Кристиан Диттер / Christian Ditter) [2011, Приключения, комедия, боевик, BDremux, 1080p] BD3D TorrentFilm 22.38 GB
Зарубежные Вики, маленький викинг 2 в 3Д / Wickie auf großer Fahrt / Wickie and the Treasure of the Gods 3D (Кристиан Диттер / Christian Ditter) [2011, Приключения, Комедия, Боевик, Семейный, BDrip-AVC]... TorrentFilm 10.88 GB
Показать сообщения:    

Текущее время: Сегодня 06:27

Часовой пояс: GMT



Вы не можете начинать темы
Вы не можете отвечать на сообщения
Вы не можете редактировать свои сообщения
Вы не можете удалять свои сообщения
Вы не можете голосовать в опросах
Вы не можете прикреплять файлы к сообщениям
Вы не можете скачивать файлы