Викинги / Northmen - A Viking Saga (Клаудио Фах / Claudio Fäh) [2014, Швейцария, Германия, ЮАР, боевик, приключения, WEB-DLRip] Dub (iTunes)

 
Автор Сообщение

TorrentFilm ®

Пол:

Стаж: 2 года

Сообщений: 7741



Награды: Нет

Торрент-статистика

Создавать темы 04-Янв-2015 00:01

[Цитировать]

--Викинги / Northmen - A Viking Saga--«A band of Vikings cross enemy lines. And a panicked race begins. The losers will pay with their lives»- Страна: Швейцария, Германия, ЮАР
Жанр: боевик, приключения
Год выпуска: 2014
Продолжительность: 01:34:00-Перевод: Профессиональный (дублированный) iTunes
Cубтитры: нет
Режиссер: Клаудио Фах / Claudio Fäh-В ролях: Джеймс Нортон, Райан Квантен, Чарли Мерфи, Эд Скрейн, Том Хоппер, Лео Грегори, Кен Дюкен, Анатоль Таубман, Николас Расенти, Йохан Хегг
Описание: Группа викингов оказалась выброшенной на побережье в тылу врага после того, как в ужасном шторме их судно пошло ко дну. Их единственный шанс выжить - это найти путь к поселению викингов. Но для этого им придется пересечь незнакомые и враждебные земли, на которых они никогда не были....
-|Сэмпл|IMDB|КиноПоиск|
-Качество видео: WEB-DLRip
Формат видео: AVI
Видео: 720x304 (2.37:1), 25 fps, XviD build 50 ~1830 kbps avg, 0.33 bit/pixel
Аудио: 48 kHz, AC3 Dolby Digital, 3/2 (L,C,R,l,r) + LFE ch, ~384 kbps

MediaInfo

Общее
Полное имя : F:\BD torrent\mytorrentsup\Vikingi.2014.D.Web-DLRip.1.46GB.avi
Формат : AVI
Формат/Информация : Audio Video Interleave
Размер файла : 1,46 Гбайт
Продолжительность : 1 ч. 34 м.
Общий поток : 2225 Кбит/сек
Программа кодирования : VirtualDubMod 1.5.10.2 (build 2540/release)
Библиотека кодирования : VirtualDubMod build 2540/release
Видео
Идентификатор : 0
Формат : MPEG-4 Visual
Профиль формата : Advanced Simple@L5
Параметр BVOP формата : 2
Параметр QPel формата : Нет
Параметр GMC формата : Без точки перехода
Параметр матрицы формата : Default (MPEG)
Идентификатор кодека : XVID
Идентификатор кодека/Подсказка : XviD
Продолжительность : 1 ч. 34 м.
Битрейт : 1831 Кбит/сек
Ширина : 720 пикселей
Высота : 304 пикселя
Соотношение сторон : 2,35:1
Частота кадров : 25,000 кадров/сек
Цветовое пространство : YUV
Субдискретизация насыщенности : 4:2:0
Битовая глубина : 8 бит
Тип развёртки : Прогрессивная
Метод сжатия : С потерями
Бит/(Пиксели*Кадры) : 0.335
Размер потока : 1,20 Гбайт (82%)
Библиотека кодирования : XviD 1.2.1 (UTC 2008-12-04)
Аудио
Идентификатор : 1
Формат : AC-3
Формат/Информация : Audio Coding 3
Расширение режима : CM (complete main)
Параметр Endianness формата : Big
Идентификатор кодека : 2000
Продолжительность : 1 ч. 34 м.
Вид битрейта : Постоянный
Битрейт : 384 Кбит/сек
Каналы : 6 каналов
Расположение каналов : Front: L C R, Side: L R, LFE
Частота : 48,0 КГц
Битовая глубина : 16 бит
Метод сжатия : С потерями
Размер потока : 258 Мбайт (17%)
Выравнивание : Разделение по промежуткам
Продолжительность промежутка : 40 мс. (1,00 видеокадр)
Время предзагрузки промежутка : 500 мс.

Скриншот c названием фильма

Скриншоты

[Профиль] [ЛС]
Кто просматривает тему:

Форум Тема Автор Размер
BBC BBC: Неизвестные викинги. Под парусами драккара / The Vikings Uncovered [серии 1-2 из 2] (Harvey Lilley) [2016 г., Документальный, история, археология, исследования, SATRip] skorpionN 1.51 GB
Viasat History Viasat History: Викинги / Vikings [серии 1-5 из 5] (Paul Russell and Andrea Vogt) [2014 г., Документально-постановочный, история, исследования, SATRip] skorpionN 3.15 GB
Viasat History Viasat History: Женщины-викинги / Die Frauen der Wikinger (Viking Women) [сезон 1 серии 1-2 из2] (Йоав Пэриш / Yoav Parish, Юдит Фёлькер / Judith Voelker, Kai Christi... skorpionN 1.45 GB
Фильмы 2009 года Вальгалла: Сага о викинге / Valhalla Rising (Николас Виндинг Рефн / Nicolas Winding Refn) [2009, Дания, Великобритания, притча, приключения, HDRip] MVO (Россия) + MVO (Велес) + Original Eng TorrentFilm 1.45 GB
Фильмы 2009 года Вальгалла: Сага о викинге / Вознесение в Вальгаллу / Valhalla Rising (2009) BDRip Russian Mafia 1.45 GB
Фильмы 2009 года Вальгалла: Сага о викинге / Вознесение в Вальгаллу / Valhalla Rising (Николас Виндинг Рёфн / Nicolas Winding Refn) [2009 г., Притча, драма, HDRip-AVC] MVO + Eng + Sub rus eng Russian Mafia 1.45 GB
Зарубежные Вики, маленький викинг 2 в 3Д / Wickie auf großer Fahrt / Wickie and the Treasure of the Gods 3D (Кристиан Диттер / Christian Ditter) [2011, Приключения, комедия, боевик, BDremux, 1080p] BD3D TorrentFilm 22.38 GB
Зарубежные Вики, маленький викинг 2 в 3Д / Wickie auf großer Fahrt / Wickie and the Treasure of the Gods 3D (Кристиан Диттер / Christian Ditter) [2011, Приключения, Комедия, Боевик, Семейный, BDrip-AVC]... TorrentFilm 10.88 GB
Показать сообщения:    

Текущее время: Сегодня 17:38

Часовой пояс: GMT



Вы не можете начинать темы
Вы не можете отвечать на сообщения
Вы не можете редактировать свои сообщения
Вы не можете удалять свои сообщения
Вы не можете голосовать в опросах
Вы не можете прикреплять файлы к сообщениям
Вы не можете скачивать файлы