Викинги / Outlander: Guerreiro vs Predador (Ховард МакКейн / Howard McCain) [2008, США, Германия, фантастика, боевик, приключения, BDRip] [Open Matte] MVO (Киномания)

 
Автор Сообщение

painkiller ®

Стаж: 2 года 3 месяца

Сообщений: 582



Награды: Нет

Торрент-статистика

Создавать темы 15-Авг-2014 01:06

[Цитировать]

Викинги / Outlander: Guerreiro vs Predador
«It destroyed his world. He won't let it destroy ours»
- Год выпуска: 2008
Страна: США, Германия
Жанр: Фантастика, боевик, приключения-Продолжительность: 1:55:08
Перевод: Профессиональный (многоголосый закадровый) [Киномания]
Cубтитры: Нет-Режиссер: Ховард МакКейн / Howard McCain
В ролях: Джеймс Кэвизел, София Майлс, Джек Хьюстон, Джон Хёрт, Клифф Сондерс, Патрик Стивенсон, Эйдан Дивайн, Рон Перлман, Бэйли Мофан, Джон Неллес и др.-Описание: Пришелец из далекой галактики терпит крушение на Земле во времена викингов. Однако он оказался не единственным выжившим в аварии. Опасный инопланетный хищник, содержавшийся в заточении на корабле, вырвался на свободу, и главному герою предстоит отыскать и уничтожить его с помощью одного из кланов викингов…-Бюджет: $50 000 000
Сборы в США: $166 003 | Сборы в Мире: + $6 817 011 = $6 983 014
Рейтинг MPAA: R (Лицам до 17 лет обязательно присутствие взрослого!)
-Качество видео: BDRip-AVC
Исходник: Blu-ray Disc 1080p [Open Matte]
Формат видео: MKV
Видео: 656x368 (1.78:1), 23.976 fps, XviD build 73 ~1427 kbps avg, 0.25 bit/pixel
Аудио: 48 kHz, AC3 Dolby Digital, 3/2 (L,C,R,l,r) + LFE ch, ~384 kbps
Размер: 1499.48 Mb ( 1 572 323 328 bytes ) DVD

Интересные факты

  • Изначально Ренни Харлин должен был поставить картину.
  • Первый фильм в истории кинематографа, где можно услышать старонорвежский язык.
  • Изначально Карл Урбан должен был сыграть главную роль, но покинул проект из-за неоднократного переноса съёмок на более поздний период.
  • Изначально фильм задумывался как крупнобюджетный проект, съёмки которого должны были пройти в Новой Зеландии, а компания Weta должна была создать спецэффекты.
  • Томас Джейн и Шон Бин рассматривались на главную роль.
  • Один из щитов в «Холе щитов» покрашен в цвета государственного флага Норвегии.
  • Язык в начале фильма, на котором главный герой ведет диалог с компьютером, — «ломанный» исландский.
MediaInfoКод:General
Complete name : C:\Викинги_2008_Blu-ray Disc\BDMV\STREAM\Vikingi.2008.BDRip.tRu.avi
Format : AVI
Format/Info : Audio Video Interleave
File size : 1.46 GiB
Duration : 1h 55mn
Overall bit rate : 1 821 Kbps
Movie name : Outlander (2008) - BDRip by Juvelir
Writing application : VirtualDubMod 1.5.10.3 | www.virtualdub-fr.org || (build 2550/release)
Video
ID : 0
Format : MPEG-4 Visual
Format profile : Advanced Simple@L5
Format settings, BVOP : 1
Format settings, QPel : No
Format settings, GMC : No warppoints
Format settings, Matrix : Custom
Codec ID : XVID
Codec ID/Hint : XviD
Duration : 1h 55mn
Bit rate : 1 428 Kbps
Width : 656 pixels
Height : 368 pixels
Display aspect ratio : 16:9
Frame rate : 23.976 fps
Color space : YUV
Chroma subsampling : 4:2:0
Bit depth : 8 bits
Scan type : Progressive
Compression mode : Lossy
Bits/(Pixel*Frame) : 0.247
Stream size : 1.15 GiB (78%)
Writing library : XviD 73
Audio
ID : 1
Format : AC-3
Format/Info : Audio Coding 3
Mode extension : CM (complete main)
Format settings, Endianness : Big
Codec ID : 2000
Duration : 1h 55mn
Bit rate mode : Constant
Bit rate : 384 Kbps
Channel count : 6 channels
Channel positions : Front: L C R, Side: L R, LFE
Sampling rate : 48.0 KHz
Bit depth : 16 bits
Compression mode : Lossy
Stream size : 316 MiB (21%)
Alignment : Split accross interleaves
Interleave, duration : 42 ms (1.00 video frame)
Interleave, preload duration : 500 ms
Title : MVO (Киномания)
Сравненияhttp://torrentfilm.net/forum/viewtopic.php?t=1787471 http://screenshotcomparison.com/comparison/77391
- разный аспект кадра.
Но в принципе можно и поглотить. Идентичный видеоряд есть здесь http://torrentfilm.net/forum/viewtopic.php?t=1661926, Киномания также имеется в других раздачах.
[Профиль] [ЛС]

Создавать темы 06-Авг-2015 23:13 (спустя 11 месяцев 22 дня)

Топик был перенесен из форума Фильмы до 2014 года в форум Фильмы до 2012 года
sergej644
 

Создавать темы 12-Июн-2016 08:51 (спустя 1 год 9 месяцев)

Топик был перенесен из форума Фильмы 2011 года в форум Фильмы 2006-2008 года
Russian Mafia
 
Кто просматривает тему:

Форум Тема Автор Размер
BBC BBC: Неизвестные викинги. Под парусами драккара / The Vikings Uncovered [серии 1-2 из 2] (Harvey Lilley) [2016 г., Документальный, история, археология, исследования, SATRip] skorpionN 1.51 GB
Viasat History Viasat History: Викинги / Vikings [серии 1-5 из 5] (Paul Russell and Andrea Vogt) [2014 г., Документально-постановочный, история, исследования, SATRip] skorpionN 3.15 GB
Viasat History Viasat History: Женщины-викинги / Die Frauen der Wikinger (Viking Women) [сезон 1 серии 1-2 из2] (Йоав Пэриш / Yoav Parish, Юдит Фёлькер / Judith Voelker, Kai Christi... skorpionN 1.45 GB
Фильмы 2009 года Вальгалла: Сага о викинге / Valhalla Rising (Николас Виндинг Рефн / Nicolas Winding Refn) [2009, Дания, Великобритания, притча, приключения, HDRip] MVO (Россия) + MVO (Велес) + Original Eng TorrentFilm 1.45 GB
Фильмы 2009 года Вальгалла: Сага о викинге / Вознесение в Вальгаллу / Valhalla Rising (2009) BDRip Russian Mafia 1.45 GB
Фильмы 2009 года Вальгалла: Сага о викинге / Вознесение в Вальгаллу / Valhalla Rising (Николас Виндинг Рёфн / Nicolas Winding Refn) [2009 г., Притча, драма, HDRip-AVC] MVO + Eng + Sub rus eng Russian Mafia 1.45 GB
Зарубежные Вики, маленький викинг 2 в 3Д / Wickie auf großer Fahrt / Wickie and the Treasure of the Gods 3D (Кристиан Диттер / Christian Ditter) [2011, Приключения, комедия, боевик, BDremux, 1080p] BD3D TorrentFilm 22.38 GB
Зарубежные Вики, маленький викинг 2 в 3Д / Wickie auf großer Fahrt / Wickie and the Treasure of the Gods 3D (Кристиан Диттер / Christian Ditter) [2011, Приключения, Комедия, Боевик, Семейный, BDrip-AVC]... TorrentFilm 10.88 GB
Показать сообщения:    

Текущее время: Сегодня 14:08

Часовой пояс: GMT



Вы не можете начинать темы
Вы не можете отвечать на сообщения
Вы не можете редактировать свои сообщения
Вы не можете удалять свои сообщения
Вы не можете голосовать в опросах
Вы не можете прикреплять файлы к сообщениям
Вы не можете скачивать файлы