Викинги / Outlander: Guerreiro vs Predador (Ховард МакКейн / Howard McCain) [2008, США, Германия, фантастика, боевик, приключения, BDRip-AVC] [Open Matte] MVO (Киномания) + MVO (CP Digital) + AVO (Немахов) + Original + Sub (Rus, Eng)

 
Автор Сообщение

painkiller ®

Стаж: 2 года 3 месяца

Сообщений: 582



Награды: Нет

Торрент-статистика

Создавать темы 14-Авг-2014 09:12

[Цитировать]

Викинги / Outlander: Guerreiro vs Predador
«It destroyed his world. He won't let it destroy ours»
- Год выпуска: 2008
Страна: США, Германия
Жанр: Фантастика, боевик, приключения-Продолжительность: 1:55:08
Перевод №1: Профессиональный (многоголосый закадровый) [Киномания]
Перевод №2: Профессиональный (многоголосый закадровый) [CP Digital] {отдельно}
Перевод №3: Профессиональный (многоголосый закадровый) [ТНТ] {отдельно}
Перевод №4: Авторский (одноголосый закадровый) [Ю. Немахов] {отдельно}
Перевод №5: Авторский (одноголосый закадровый) [С. Визгунов] {отдельно на файлообменнике}
Оригинальная аудиодорожка: Английская
Cубтитры: Русские, английские {*.srt}-Режиссер: Ховард МакКейн / Howard McCain
В ролях: Джеймс Кэвизел, София Майлс, Джек Хьюстон, Джон Хёрт, Клифф Сондерс, Патрик Стивенсон, Эйдан Дивайн, Рон Перлман, Бэйли Мофан, Джон Неллес и др.-Описание: Пришелец из далекой галактики терпит крушение на Земле во времена викингов. Однако он оказался не единственным выжившим в аварии. Опасный инопланетный хищник, содержавшийся в заточении на корабле, вырвался на свободу, и главному герою предстоит отыскать и уничтожить его с помощью одного из кланов викингов…-Бюджет: $50 000 000
Сборы в США: $166 003 | Сборы в Мире: + $6 817 011 = $6 983 014
Рейтинг MPAA: R (Лицам до 17 лет обязательно присутствие взрослого!)
-Качество видео: BDRip-AVC
Источники: Blu-ray Disc 1080p [Open Matte] / за аудиодорожку ТНТ спасибо alenavova
Формат видео: MKV
Видео: 1152x648 (16:9), 23.976 fps, x264 ~4448 kbps avg, 0.243 bit/pixel
Аудио#1: 48 kHz, AC3 Dolby Digital, 3/2 (L,C,R,l,r) + LFE ch, ~448 kbps [Киномания]
Аудио#2: 48 kHz, AC3 Dolby Digital, 3/2 (L,C,R,l,r) + LFE ch, ~448 kbps [Original]
Аудио#3: 48 kHz, AC3 Dolby Digital, 3/2 (L,C,R,l,r) + LFE ch, ~448 kbps [CP Digital] {отдельно}
Аудио#4: 48 kHz, AC3 Dolby Digital, 2/0 (L,R) ch, ~192.00 kbps [ТНТ] {отдельно}
Аудио#5: 48 kHz, AC3 Dolby Digital, 3/2 (L,C,R,l,r) + LFE ch, ~448 kbps [Немахов] {отдельно}
Аудио#6: 48 kHz, AC3 Dolby Digital, 2/0 (L,R) ch, ~256.00 kbps [Визгунов] {отдельно на файлообменнике}

Интересные факты

  • Изначально Ренни Харлин должен был поставить картину.
  • Первый фильм в истории кинематографа, где можно услышать старонорвежский язык.
  • Изначально Карл Урбан должен был сыграть главную роль, но покинул проект из-за неоднократного переноса съёмок на более поздний период.
  • Изначально фильм задумывался как крупнобюджетный проект, съёмки которого должны были пройти в Новой Зеландии, а компания Weta должна была создать спецэффекты.
  • Томас Джейн и Шон Бин рассматривались на главную роль.
  • Один из щитов в «Холе щитов» покрашен в цвета государственного флага Норвегии.
  • Язык в начале фильма, на котором главный герой ведет диалог с компьютером, — «ломанный» исландский.

MediaInfo/x264

MediaInfo

General
Unique ID                                : 227554855894695493430075420645018664172 (0xAB317899BC86289E9D7450803E297CEC)
Complete name                            : C:\Викинги_2008_Blu-ray Disc\BDMV\STREAM\Vikingi.2008.BDRip-tRuAVC\Vikingi.2008.BDRip-tRuAVC.mkv
Format                                   : Matroska
Format version                           : Version 2
File size                                : 4.30 GiB
Duration                                 : 1h 55mn
Overall bit rate                         : 5 347 Kbps
Movie name                               : Outlander (2008) - BDRip by Juvelir
Encoded date                             : UTC 2014-05-31 10:59:13
Writing application                      : mkvmerge v3.4.0 ('Rapunzel') сборка от May 15 2010 09:38:20
Writing library                          : libebml v0.8.0 + libmatroska v0.9.0
Video
ID                                       : 1
Format                                   : AVC
Format/Info                              : Advanced Video Codec
Format profile                           : High@L4.1
Format settings, CABAC                   : Yes
Format settings, ReFrames                : 7 frames
Codec ID                                 : V_MPEG4/ISO/AVC
Duration                                 : 1h 55mn
Bit rate                                 : 4 344 Kbps
Width                                    : 1 152 pixels
Height                                   : 648 pixels
Display aspect ratio                     : 16:9
Frame rate mode                          : Constant
Frame rate                               : 23.976 fps
Color space                              : YUV
Chroma subsampling                       : 4:2:0
Bit depth                                : 8 bits
Scan type                                : Progressive
Bits/(Pixel*Frame)                       : 0.243
Stream size                              : 3.49 GiB (81%)
Title                                    : [Open Matte]
Writing library                          : x264 core 142 r2431kMod ac76440
Encoding settings                        : cabac=1 / ref=7 / deblock=1:-3:-2 / analyse=0x3:0x133 / me=umh / subme=11 / psy=1 / fade_compensate=0.00 / psy_rd=0.95:0.01 / mixed_ref=1 / me_range=48 / chroma_me=1 / trellis=2 / 8x8dct=1 / cqm=0 / deadzone=21,11 / fast_pskip=0 / chroma_qp_offset=-3 / threads=6 / lookahead_threads=1 / sliced_threads=0 / nr=0 / decimate=1 / interlaced=0 / bluray_compat=0 / constrained_intra=0 / fgo=0 / bframes=12 / b_pyramid=2 / b_adapt=2 / b_bias=0 / direct=3 / weightb=1 / open_gop=0 / weightp=2 / keyint=240 / keyint_min=23 / scenecut=40 / intra_refresh=0 / rc_lookahead=60 / rc=crf / mbtree=0 / crf=19.7000 / qcomp=0.70 / qpmin=0 / qpmax=69 / qpstep=4 / vbv_maxrate=50000 / vbv_bufsize=62500 / crf_max=0.0 / nal_hrd=none / filler=0 / ip_ratio=1.40 / pb_ratio=1.30 / aq=3:1.10
Language                                 : English
Default                                  : Yes
Forced                                   : Yes
Color primaries                          : BT.709
Transfer characteristics                 : BT.709
Matrix coefficients                      : BT.709
Audio #1
ID                                       : 2
Format                                   : AC-3
Format/Info                              : Audio Coding 3
Mode extension                           : CM (complete main)
Format settings, Endianness              : Big
Codec ID                                 : A_AC3
Duration                                 : 1h 55mn
Bit rate mode                            : Constant
Bit rate                                 : 448 Kbps
Channel count                            : 6 channels
Channel positions                        : Front: L C R, Side: L R, LFE
Sampling rate                            : 48.0 KHz
Bit depth                                : 16 bits
Compression mode                         : Lossy
Stream size                              : 369 MiB (8%)
Title                                    : MVO (Киномания)
Language                                 : Russian
Default                                  : Yes
Forced                                   : No
Audio #2
ID                                       : 3
Format                                   : AC-3
Format/Info                              : Audio Coding 3
Mode extension                           : CM (complete main)
Format settings, Endianness              : Big
Codec ID                                 : A_AC3
Duration                                 : 1h 55mn
Bit rate mode                            : Constant
Bit rate                                 : 448 Kbps
Channel count                            : 6 channels
Channel positions                        : Front: L C R, Side: L R, LFE
Sampling rate                            : 48.0 KHz
Bit depth                                : 16 bits
Compression mode                         : Lossy
Stream size                              : 369 MiB (8%)
Title                                    : Original
Language                                 : English
Default                                  : No
Forced                                   : No
Text #1
ID                                       : 4
Format                                   : UTF-8
Codec ID                                 : S_TEXT/UTF8
Codec ID/Info                            : UTF-8 Plain Text
Title                                    : Full (Киномания)
Language                                 : Russian
Default                                  : No
Forced                                   : No
Text #2
ID                                       : 5
Format                                   : UTF-8
Codec ID                                 : S_TEXT/UTF8
Codec ID/Info                            : UTF-8 Plain Text
Title                                    : Full (CP Digital)
Language                                 : Russian
Default                                  : No
Forced                                   : No
Text #3
ID                                       : 6
Format                                   : UTF-8
Codec ID                                 : S_TEXT/UTF8
Codec ID/Info                            : UTF-8 Plain Text
Language                                 : English
Default                                  : No
Forced                                   : No
Код:
General
Complete name                            : C:\Викинги_2008_Blu-ray Disc\BDMV\STREAM\Vikingi.2008.BDRip-tRuAVC\Vikingi.2008.BDRip-tRuAVC.CP_Digital.ac3
Format                                   : AC-3
Format/Info                              : Audio Coding 3
File size                                : 369 MiB
Duration                                 : 1h 55mn
Overall bit rate mode                    : Constant
Overall bit rate                         : 448 Kbps
Audio
Format                                   : AC-3
Format/Info                              : Audio Coding 3
Mode extension                           : CM (complete main)
Format settings, Endianness              : Big
Duration                                 : 1h 55mn
Bit rate mode                            : Constant
Bit rate                                 : 448 Kbps
Channel count                            : 6 channels
Channel positions                        : Front: L C R, Side: L R, LFE
Sampling rate                            : 48.0 KHz
Bit depth                                : 16 bits
Compression mode                         : Lossy
Stream size                              : 369 MiB (100%)
Код:
General
Complete name                            : C:\Викинги_2008_Blu-ray Disc\BDMV\STREAM\Vikingi.2008.BDRip-tRuAVC\Vikingi.2008.BDRip-tRuAVC.THT.ac3
Format                                   : AC-3
Format/Info                              : Audio Coding 3
File size                                : 158 MiB
Duration                                 : 1h 55mn
Overall bit rate mode                    : Constant
Overall bit rate                         : 192 Kbps
Audio
Format                                   : AC-3
Format/Info                              : Audio Coding 3
Mode extension                           : CM (complete main)
Format settings, Endianness              : Big
Duration                                 : 1h 55mn
Bit rate mode                            : Constant
Bit rate                                 : 192 Kbps
Channel count                            : 2 channels
Channel positions                        : Front: L R
Sampling rate                            : 48.0 KHz
Bit depth                                : 16 bits
Compression mode                         : Lossy
Stream size                              : 158 MiB (100%)
Код:
General
Complete name                            : C:\Викинги_2008_Blu-ray Disc\BDMV\STREAM\Vikingi.2008.BDRip-tRuAVC\Vikingi.2008.BDRip-tRuAVC.Nemahov.ac3
Format                                   : AC-3
Format/Info                              : Audio Coding 3
File size                                : 369 MiB
Duration                                 : 1h 55mn
Overall bit rate mode                    : Constant
Overall bit rate                         : 448 Kbps
Audio
Format                                   : AC-3
Format/Info                              : Audio Coding 3
Mode extension                           : CM (complete main)
Format settings, Endianness              : Big
Duration                                 : 1h 55mn
Bit rate mode                            : Constant
Bit rate                                 : 448 Kbps
Channel count                            : 6 channels
Channel positions                        : Front: L C R, Side: L R, LFE
Sampling rate                            : 48.0 KHz
Bit depth                                : 16 bits
Compression mode                         : Lossy
Stream size                              : 369 MiB (100%)

x264

x264 [info]: frame I:1313  Avg QP:15.87  size: 77091  PSNR Mean Y:47.05 U:52.14 V:51.75 Avg:48.09 Global:47.03
x264 [info]: frame P:35367 Avg QP:16.87  size: 41236  PSNR Mean Y:46.24 U:51.21 V:50.79 Avg:47.25 Global:45.85
x264 [info]: frame B:128936 Avg QP:19.30  size: 17694  PSNR Mean Y:44.75 U:50.46 V:49.96 Avg:45.83 Global:44.61
x264 [info]: consecutive B-frames:  2.3%  2.6%  7.5% 16.8% 12.6% 48.9%  4.3%  1.6%  1.1%  1.2%  0.2%  0.4%  0.3%
x264 [info]: mb I  I16..4:  4.8% 83.7% 11.5%
x264 [info]: mb P  I16..4:  2.0% 27.1%  2.0%  P16..4: 25.7% 29.9%  9.7%  1.0%  0.1%    skip: 2.5%
x264 [info]: mb B  I16..4:  0.6%  3.8%  0.3%  B16..8: 36.3% 22.4%  3.7%  direct: 9.4%  skip:23.5%  L0:44.7% L1:44.2% BI:11.1%
x264 [info]: 8x8 transform intra:84.9% inter:67.6%
x264 [info]: direct mvs  spatial:100.0% temporal:0.0%
x264 [info]: coded y,uvDC,uvAC intra: 81.2% 76.7% 53.2% inter: 36.5% 30.1% 3.6%
x264 [info]: i16 v,h,dc,p: 58% 14%  5% 23%
x264 [info]: i8 v,h,dc,ddl,ddr,vr,hd,vl,hu: 10%  6% 11% 10% 13% 12% 12% 12% 14%
x264 [info]: i4 v,h,dc,ddl,ddr,vr,hd,vl,hu: 13%  8% 16%  7% 12% 11% 10% 10% 13%
x264 [info]: i8c dc,h,v,p: 36% 31% 18% 14%
x264 [info]: Weighted P-Frames: Y:12.4% UV:8.6%
x264 [info]: ref P L0: 44.3%  8.8% 19.4%  9.3%  7.0%  5.5%  4.8%  0.8%  0.0%
x264 [info]: ref B L0: 71.7% 14.0%  7.5%  4.0%  2.1%  0.8%
x264 [info]: ref B L1: 92.1%  7.9%
x264 [info]: SSIM Mean Y:0.9806626 (17.136db)
x264 [info]: PSNR Mean Y:45.086 U:50.637 V:50.154 Avg:46.151 Global:44.865 kb/s:4448.43
--
[Профиль] [ЛС]

Создавать темы 06-Авг-2015 23:15 (спустя 11 месяцев 23 дня)

Топик был перенесен из форума Фильмы до 2014 года в форум Фильмы до 2012 года
sergej644
 

Создавать темы 12-Июн-2016 08:50 (спустя 1 год 9 месяцев)

Топик был перенесен из форума Фильмы 2011 года в форум Фильмы 2006-2008 года
Russian Mafia
 
Кто просматривает тему:

Форум Тема Автор Размер
BBC BBC: Неизвестные викинги. Под парусами драккара / The Vikings Uncovered [серии 1-2 из 2] (Harvey Lilley) [2016 г., Документальный, история, археология, исследования, SATRip] skorpionN 1.51 GB
Viasat History Viasat History: Викинги / Vikings [серии 1-5 из 5] (Paul Russell and Andrea Vogt) [2014 г., Документально-постановочный, история, исследования, SATRip] skorpionN 3.15 GB
Viasat History Viasat History: Женщины-викинги / Die Frauen der Wikinger (Viking Women) [сезон 1 серии 1-2 из2] (Йоав Пэриш / Yoav Parish, Юдит Фёлькер / Judith Voelker, Kai Christi... skorpionN 1.45 GB
Фильмы 2009 года Вальгалла: Сага о викинге / Valhalla Rising (Николас Виндинг Рефн / Nicolas Winding Refn) [2009, Дания, Великобритания, притча, приключения, HDRip] MVO (Россия) + MVO (Велес) + Original Eng TorrentFilm 1.45 GB
Фильмы 2009 года Вальгалла: Сага о викинге / Вознесение в Вальгаллу / Valhalla Rising (2009) BDRip Russian Mafia 1.45 GB
Фильмы 2009 года Вальгалла: Сага о викинге / Вознесение в Вальгаллу / Valhalla Rising (Николас Виндинг Рёфн / Nicolas Winding Refn) [2009 г., Притча, драма, HDRip-AVC] MVO + Eng + Sub rus eng Russian Mafia 1.45 GB
Зарубежные Вики, маленький викинг 2 в 3Д / Wickie auf großer Fahrt / Wickie and the Treasure of the Gods 3D (Кристиан Диттер / Christian Ditter) [2011, Приключения, комедия, боевик, BDremux, 1080p] BD3D TorrentFilm 22.38 GB
Зарубежные Вики, маленький викинг 2 в 3Д / Wickie auf großer Fahrt / Wickie and the Treasure of the Gods 3D (Кристиан Диттер / Christian Ditter) [2011, Приключения, Комедия, Боевик, Семейный, BDrip-AVC]... TorrentFilm 10.88 GB
Показать сообщения:    

Текущее время: Сегодня 02:40

Часовой пояс: GMT



Вы не можете начинать темы
Вы не можете отвечать на сообщения
Вы не можете редактировать свои сообщения
Вы не можете удалять свои сообщения
Вы не можете голосовать в опросах
Вы не можете прикреплять файлы к сообщениям
Вы не можете скачивать файлы