Визонтеле Тууба / Vizontele Tuuba (Йылмаз Эрдоган / Yilmaz Erdogan) [2004, Турция, комедия, драма, DVDRip] Sub Rus

 
Автор Сообщение

TorrentFilm ®

Пол:

Стаж: 2 года

Сообщений: 7741



Награды: Нет

Торрент-статистика

Создавать темы 29-Июн-2015 00:06

[Цитировать]

Визонтеле Тууба / Vizontele Tuuba
Страна: Турция
Жанр: комедия, драма
Год выпуска: 2004
Продолжительность: 01:46:32-Перевод: Субтитры (lobo)
Cубтитры: русские
Оригинальная аудиодорожка: турецкий-Режиссер: Йылмаз Эрдоган / Yilmaz Erdogan-В ролях: Йылмаз Эрдоган, Тарик Акан, Алтан Эркикли, Демет Акбаг, Туба Юнсал, Дениз Аккайя, Джанер Алкайя, Иклал Айдин, Джезми Баскин, Синан Бергиер, Ата Демирер, Волкан Демирок, Селим Эрдоган, Ясемин Эргине, Эдил Фират, Нури Гёкасан, Бикан Гюналан, Бюлент Инал, Салих Калион, Сенер Коккайя, Тунсер Салман, Зеррин Сюмер, Джелал Так, Зейнеп Токус, Эрдал Тосун, Неджат Йугур, Толга Джевик-Описание:
Продолжение фильма «Визонтеле».
События разворачиваются все в том же маленьком турецком городке Хаккари шесть лет спустя, летом 1980 года. У мэра городка опять проблема. Если в прошлый раз ему всучили телевизор, которым никто еще не знал, как пользоваться, то на сей раз ему прислали нового директора библиотеки. Оно бы и хорошо, но дело в том, что библиотеки в городе нет. И что делать?.. Для Йылмаза, внука мэра, это лето стало последним летом детства – слишком много он узнал в те дни о дружбе и любви, о соседстве и политике, и о многих других взрослых вещах. В том числе и о том, сколь зыбка бывает грань между комедией, драмой и трагедией. Сценарий основан на детских воспоминаниях режиссера Йылмаза Эрдогана, который провел в Хаккари свое детство.-Сэмпл: https://yadi.sk/i/53jbWJE6hUHL9-Качество видео: DVDRip
Формат видео: AVI
Видео: 720x384 (1.88:1), 25 fps, XviD build 50 ~1378 kbps avg, 0.20 bit/pixel
Аудио: 48 kHz, AC3 Dolby Digital, 3/2 (L,C,R,l,r) + LFE ch, ~448 kbps
Формат субтитров: softsub (SRT)

MediaInfo

Format : AVI
Format/Info : Audio Video Interleave
File size : 1.37 GiB
Duration : 1h 46mn
Overall bit rate : 1 836 Kbps
Writing application : VirtualDubMod 1.5.10.2 (build 2542/release)
Writing library : VirtualDubMod build 2542/release
Video
ID : 0
Format : MPEG-4 Visual
Format profile : Advanced Simple@L5
Format settings, BVOP : Yes
Format settings, QPel : No
Format settings, GMC : No warppoints
Format settings, Matrix : Default (MPEG)
Codec ID : XVID
Codec ID/Hint : XviD
Duration : 1h 46mn
Bit rate : 1 379 Kbps
Width : 720 pixels
Height : 384 pixels
Display aspect ratio : 1.85:1
Frame rate : 25.000 fps
Color space : YUV
Chroma subsampling : 4:2:0
Bit depth : 8 bits
Scan type : Progressive
Compression mode : Lossy
Bits/(Pixel*Frame) : 0.199
Stream size : 1.03 GiB (75%)
Writing library : XviD 1.2.1 (UTC 2008-12-04)
Audio
ID : 1
Format : AC-3
Format/Info : Audio Coding 3
Mode extension : CM (complete main)
Format settings, Endianness : Big
Codec ID : 2000
Duration : 1h 46mn
Bit rate mode : Constant
Bit rate : 448 Kbps
Channel(s) : 6 channels
Channel positions : Front: L C R, Side: L R, LFE
Sampling rate : 48.0 KHz
Bit depth : 16 bits
Compression mode : Lossy
Stream size : 341 MiB (24%)
Alignment : Split accross interleaves
Interleave, duration : 40 ms (1.00 video frame)
Interleave, preload duration : 500 ms

Скриншот c названием фильма

Скриншоты

Фрагмент субтитров

5
00:00:37,720 --> 00:00:43,431
Октябрь 1980.
6
00:00:44,640 --> 00:00:47,279
- Доброе утро.
- Доброе утро.
7
00:00:47,960 --> 00:00:50,976
- Доброе утро!
- Господин!
8
00:00:51,280 --> 00:00:54,078
Доброе утро всем!
9
00:00:56,880 --> 00:00:58,996
- Доброе утро!
- Господин!
10
00:01:00,960 --> 00:01:02,473
Садитесь!
11
00:01:09,120 --> 00:01:11,076
Сочинение.
12
00:01:14,200 --> 00:01:18,512
Дети, писать -
это серьезное дело.
13
00:01:18,760 --> 00:01:21,672
Письмо - это свод правил.
14
00:01:21,880 --> 00:01:25,031
Не игра, в которую превращают
его многие из вас.
15
00:01:26,040 --> 00:01:28,952
Вот тема сочинения.
16
00:01:29,060 --> 00:01:32,197
Как вы провели ваши
летние каникулы?
17
00:01:32,480 --> 00:01:34,357
Вот в чем вопрос.
18
00:01:34,560 --> 00:01:36,118
Что мы делаем?
19
00:01:36,320 --> 00:01:38,675
Разъясните вопрос.
20
00:01:38,880 --> 00:01:41,519
Максимальный размер -
одна страница.
21
00:01:41,720 --> 00:01:44,109
Вступление. Основной текст.
22
00:01:44,320 --> 00:01:46,311
Заключение.
23
00:01:46,720 --> 00:01:50,838
И не забываем о правилах
правописания.
24
00:01:51,960 --> 00:01:53,837
Каких правилах?
25
00:01:54,040 --> 00:01:59,797
- Мы соблюдаем правила правописания.
- Да, мы соблюдаем правила правописания.
[Профиль] [ЛС]

Создавать темы 06-Авг-2015 22:29 (спустя 1 месяц 7 дней)

Топик был перенесен из форума Фильмы до 2014 года в форум Фильмы до 2012 года
sergej644
 
Кто просматривает тему:

Показать сообщения:    

Текущее время: Сегодня 10:50

Часовой пояс: GMT



Вы не можете начинать темы
Вы не можете отвечать на сообщения
Вы не можете редактировать свои сообщения
Вы не можете удалять свои сообщения
Вы не можете голосовать в опросах
Вы не можете прикреплять файлы к сообщениям
Вы не можете скачивать файлы