Визит / The Visit (М. Найт Шьямалан / M. Night Shyamalan) [2015, США, ужасы, триллер, WEB-DLRip] VO (Raim)

 
Автор Сообщение

TorrentFilm ®

Пол:

Стаж: 2 года

Сообщений: 7741



Награды: Нет

Торрент-статистика

Создавать темы 22-Дек-2015 00:09

[Цитировать]

Визит / The Visit
Страна: США
Жанр: ужасы, триллер
Год выпуска: 2015
Продолжительность: 01:33:56
Перевод: Одноголосый закадровый Raim
Cубтитры: нет
Оригинальная аудиодорожка: английский
Режиссер: М. Найт Шьямалан / M. Night Shyamalan
В ролях: Оливия ДеДжондж, Эд Оксенбульд, Дианна Данаган, Питер МакРобби, Кэтрин Хан, Селия Кинэн-Болджер, Самуэль Стриклен, Патрик Дарро, Хорхе Кордова, Стив Аннан
Описание: Много лет назад она бежала из родительского дома без оглядки и с тех пор старалась не вспоминать события той самой ночи. Теперь у нее уже взрослые дети. Однажды они получают приглашения от бабушки и дедушки, которых никогда не видели прежде, и решают нанести им визит.
Сэмпл: http://multi-up.com/1080107
Качество видео: WEB-DLRip
Формат видео: AVI
Видео: Xvid 720x384 23.98fps 1 735 Kbps
Аудио: MPEG Audio Layer 3 48000Hz stereo 128kbps
Аудио 2: Dolby AC3 48000Hz 6ch 384kbps

MediaInfo

Format : AVI
Format/Info : Audio Video Interleave
File size : 1.48 GiB
Duration : 1h 33mn
Overall bit rate : 2 261 Kbps
Writing application : VirtualDubMod 1.5.10.2 (build 2540/release)
Writing library : VirtualDubMod build 2540/release
Video
ID : 0
Format : MPEG-4 Visual
Format profile : AdvancedSimple@L5
Format settings, BVOP : Yes
Format settings, QPel : No
Format settings, GMC : No warppoints
Format settings, Matrix : Default (H.263)
Muxing mode : Packed bitstream
Codec ID : XVID
Codec ID/Hint : XviD
Duration : 1h 33mn
Bit rate : 1 735 Kbps
Width : 720 pixels
Height : 384 pixels
Display aspect ratio : 1.875
Frame rate : 23.976 fps
Resolution : 24 bits
Colorimetry : 4:2:0
Scan type : Progressive
Bits/(Pixel*Frame) : 0.262
Stream size : 1.14 GiB (77%)
Writing library : XviD 66
Audio #1
ID : 1
Format : MPEG Audio
Format version : Version 1
Format profile : Layer 3
Format settings, Mode : Joint stereo / MS Stereo
Codec ID : 55
Codec ID/Hint : MP3
Duration : 1h 33mn
Bit rate mode : Constant
Bit rate : 128 Kbps
Channel(s) : 2 channels
Sampling rate : 48.0 KHz
Resolution : 16 bits
Stream size : 86.0 MiB (6%)
Alignment : Aligned on interleaves
Interleave, duration : 42 ms (1.00 video frame)
Interleave, preload duration : 504 ms
Audio #2
ID : 2
Format : AC-3
Format/Info : Audio Coding 3
Codec ID : 2000
Duration : 1h 33mn
Bit rate mode : Constant
Bit rate : 384 Kbps
Channel(s) : 6 channels
Channel positions : Front: L C R, Surround: L R, LFE
Sampling rate : 48.0 KHz
Stream size : 258 MiB (17%)
Alignment : Aligned on interleaves
Interleave, duration : 42 ms (1.00 video frame)
Interleave, preload duration : 512 ms

Скриншот c названием фильма

Скриншоты

[Профиль] [ЛС]
Показать сообщения:    

Текущее время: Сегодня 16:53

Часовой пояс: GMT



Вы не можете начинать темы
Вы не можете отвечать на сообщения
Вы не можете редактировать свои сообщения
Вы не можете удалять свои сообщения
Вы не можете голосовать в опросах
Вы не можете прикреплять файлы к сообщениям
Вы не можете скачивать файлы