Визит / The Visit (2015) BDRip 1080p | L1

 
Автор Сообщение

BOSS ®

Пол:

Стаж: 2 года 1 месяц

Сообщений: 3735

Откуда: ODESSA



Награды: 20 (Подробнее)

Top Keeper 3 (Количество: 1) Top Keeper 4 (Количество: 1) Mega Releaser 2 (Количество: 1)
Торрент-статистика

Создавать темы 20-Дек-2015 11:22

[Цитировать]

Название: Визит
Оригинальное название: The Visit
Год выпуска: 2015
Жанр: Ужасы, триллер
Выпущено: США, Blinding Edge Pictures, Blumhouse Productions
Режиссер: М. Найт Шьямалан
В ролях: Оливия ДеДжондж, Эд Оксенбульд, Дианна Данаган, Питер МакРобби, Кэтрин Хан, Селия Кинэн-Болджер, Самуэль Стриклен, Патрик Дарро, Хорхе Кордова, Стив Аннан
О фильме: Много лет назад она бежала из родительского дома без оглядки и с тех пор старалась не вспоминать события той самой ночи. Теперь у нее уже взрослые дети. Однажды они получают приглашения от бабушки и дедушки, которых никогда не видели прежде, и решают нанести им визит.

Качество: BDRip 1080p
Видео: MPEG-4 AVC, 10.1 Мбит/с, 1920x1040
Аудио: Русский (MP3, 2 ch, 128 Кбит/с), английский (DTS, 6 ch, 1509 Кбит/с), (AC3, 6 ch, 384 Кбит/с)
Продолжительность: 01:33:56
Озвучивание: Любительское одноголосое [Raim]
Субтитры: Английские

Скриншоты

MediaInfo

Format : Matroska
Format version : Version 4 / Version 2
File size : 7.98 GiB
Duration : 1h 34mn
Overall bit rate : 12.2 Mbps
Movie name : Визит.The.Visit.2015.BDRip.1080p
Encoded date : UTC 2015-12-19 19:06:53
Writing application : mkvmerge v8.3.0 ('Over the Horizon') 64bit
Writing library : libebml v1.3.1 + libmatroska v1.4.2
Video
ID : 1
Format : AVC
Format/Info : Advanced Video Codec
Format profile : High@L4.1
Format settings, CABAC : Yes
Format settings, ReFrames : 4 frames
Codec ID : V_MPEG4/ISO/AVC
Duration : 1h 34mn
Bit rate : 10.1 Mbps
Width : 1 920 pixels
Height : 1 040 pixels
Display aspect ratio : 1.85:1
Frame rate mode : Constant
Frame rate : 23.976 (24000/1001) fps
Color space : YUV
Chroma subsampling : 4:2:0
Bit depth : 8 bits
Scan type : Progressive
Bits/(Pixel*Frame) : 0.212
Stream size : 6.66 GiB (83%)
Writing library : x264 core 148 r2638 7599210
Encoding settings : cabac=1 / ref=4 / deblock=1:0:0 / analyse=0x3:0x113 / me=umh / subme=8 / psy=1 / psy_rd=1.00:0.00 / mixed_ref=1 / me_range=16 / chroma_me=1 / trellis=1 / 8x8dct=1 / cqm=0 / deadzone=21,11 / fast_pskip=0 / chroma_qp_offset=-2 / threads=24 / lookahead_threads=4 / sliced_threads=0 / nr=0 / decimate=1 / interlaced=0 / bluray_compat=0 / constrained_intra=0 / bframes=3 / b_pyramid=2 / b_adapt=2 / b_bias=0 / direct=3 / weightb=1 / open_gop=0 / weightp=2 / keyint=250 / keyint_min=23 / scenecut=40 / intra_refresh=0 / rc_lookahead=50 / rc=2pass / mbtree=1 / bitrate=10144 / ratetol=1.0 / qcomp=0.60 / qpmin=0 / qpmax=69 / qpstep=4 / cplxblur=20.0 / qblur=0.5 / ip_ratio=1.40 / aq=1:1.00
Language : English
Default : Yes
Forced : No
Audio #1
ID : 2
Format : MPEG Audio
Format version : Version 1
Format profile : Layer 3
Mode : Joint stereo
Mode extension : MS Stereo
Codec ID : A_MPEG/L3
Codec ID/Hint : MP3
Duration : 1h 33mn
Bit rate mode : Constant
Bit rate : 128 Kbps
Channel(s) : 2 channels
Sampling rate : 48.0 KHz
Frame rate : 41.667 fps (1152 spf)
Compression mode : Lossy
Delay relative to video : 20ms
Stream size : 86.0 MiB (1%)
Language : Russian
Default : Yes
Forced : No
Audio #2
ID : 3
Format : DTS
Format/Info : Digital Theater Systems
Mode : 16
Format settings, Endianness : Big
Codec ID : A_DTS
Duration : 1h 34mn
Bit rate mode : Constant
Bit rate : 1 509 Kbps
Channel(s) : 6 channels
Channel positions : Front: L C R, Side: L R, LFE
Sampling rate : 48.0 KHz
Frame rate : 93.750 fps (512 spf)
Bit depth : 24 bits
Compression mode : Lossy
Stream size : 1 015 MiB (12%)
Language : English
Default : No
Forced : No
Audio #3
ID : 4
Format : AC-3
Format/Info : Audio Coding 3
Mode extension : CM (complete main)
Format settings, Endianness : Big
Codec ID : A_AC3
Duration : 1h 33mn
Bit rate mode : Constant
Bit rate : 384 Kbps
Channel(s) : 6 channels
Channel positions : Front: L C R, Side: L R, LFE
Sampling rate : 48.0 KHz
Frame rate : 31.250 fps (1536 spf)
Compression mode : Lossy
Delay relative to video : 12ms
Stream size : 258 MiB (3%)
Language : English
Default : No
Forced : No
Text #1
ID : 5
Format : UTF-8
Codec ID : S_TEXT/UTF8
Codec ID/Info : UTF-8 Plain Text
Duration : 1h 29mn
Bit rate : 59 bps
Count of elements : 1178
Stream size : 39.3 KiB (0%)
Language : English
Default : No
Forced : No
Text #2
ID : 6
Format : UTF-8
Codec ID : S_TEXT/UTF8
Codec ID/Info : UTF-8 Plain Text
Duration : 1h 29mn
Bit rate : 66 bps
Count of elements : 1355
Stream size : 43.7 KiB (0%)
Title : sdh
Language : English
Default : No
Forced : No
Menu
00:00:00.000 : en:00:00:00.000
00:02:51.922 : en:00:02:51.922
00:06:38.356 : en:00:06:38.356
00:11:08.710 : en:00:11:08.710
00:17:11.948 : en:00:17:11.948
00:21:39.798 : en:00:21:39.798
00:25:45.753 : en:00:25:45.753
00:29:44.825 : en:00:29:44.825
00:34:24.854 : en:00:34:24.854
00:40:48.571 : en:00:40:48.571
00:44:42.013 : en:00:44:42.013
00:48:16.393 : en:00:48:16.393
00:52:34.735 : en:00:52:34.735
00:57:08.383 : en:00:57:08.383
01:00:54.109 : en:01:00:54.109
01:05:17.163 : en:01:05:17.163
01:09:08.186 : en:01:09:08.186
01:13:38.372 : en:01:13:38.372
01:23:58.909 : en:01:23:58.909
01:28:54.037 : en:01:28:54.037
[Профиль] [ЛС]
Показать сообщения:    

Текущее время: Сегодня 06:15

Часовой пояс: GMT



Вы не можете начинать темы
Вы не можете отвечать на сообщения
Вы не можете редактировать свои сообщения
Вы не можете удалять свои сообщения
Вы не можете голосовать в опросах
Вы не можете прикреплять файлы к сообщениям
Вы не можете скачивать файлы