Визит к Минотавру [01-05 из 05] (1987) SATRip от New-Team

 
Автор Сообщение

sergej644 ®

Пол:

Стаж: 4 года 11 месяцев

Сообщений: 6038

Откуда: Soviet Union



Награды: Нет

Торрент-статистика

Создавать темы 20-Окт-2014 17:34

[Цитировать]

--Визит к Минотавру [01-05 из 05]
-Страна: СССР / Студия Горького, Гостелерадио
Жанр: криминал, детектив, приключения...
Год выпуска: 1987
Продолжительность: 01:10:00 / серия
Перевод: Не требуется
Cубтитры: нет
Оригинальная аудиодорожка: русский
Режиссер: Эльдор Уразбаев
В ролях: Сергей Шакуров, Анна Каменкова, Владимир Самойлов, Лаймонас Норейка, Ростислав Плятт, Михаил Пуговкин, Нина Меньшикова, Валентин Гафт, Александр Филиппенко, Лев Борисов...
Роли дублировали: Владимир Сафронов, Игорь Тарадайкин, Рудольф Панков, Владимир Ферапонтов, Сергей Быстрицкий...
Описание: В основе детективной истории - поиски пропавшей скрипки Антонио Страдивари. Это одна сюжетная линия фильма, но с ней существует вторая - историческая, она переносит зрителя в XVII век и посвящена жизни Мастера и его работе над скрипкой. Когда-то Иконников имел шанс стать первой скрипкой. Но этого не произошло - конкурс выиграл его друг Поляков. Друг перестал быть другом, а прекрасный исполнитель, не желая быть вторым или третьим, нашел себе хобби и посвятил оставшиеся года изучению змей. Прошло много лет. Однажды во время отсутствия скрипача и педагога Льва Иосифовича Полякова была ограблена его квартира. Среди множества ценных и малоценных вещей, которых лишился профессор, была скрипка «Санта-Мария», одна из лучших работ Антонио Страдивари, созданная более 260-ти лет тому назад в период творческого расцвета мастера... По одноименному роману Аркадия и Георгия Вайнеров.
-Качество: SATRip / DVB - трансляция телеканала "Звезда"
Формат: AVI
Видео: 688x528 (4:3), 25.000 fps, XviD ~ 1800 kbps avg, 0.198 bit/pixel
Аудио: 48 kHz, Dolby AC3, 2 ch, 192 kbps, русский
Раздача от:

MediaInfo

Общее
Полное имя : Vizit.k.Minotavru.1987.O.SATRip_[New-Team]_by_keeper1.avi
Формат : AVI
Формат/Информация : Audio Video Interleave
Размер файла : 1,01 Гбайт
Продолжительность : 1 ч. 12 м.
Общий поток : 1996 Кбит/сек
Программа кодирования : VirtualDubModRus 1.5.10.2 (build 2542/release)
Библиотека кодирования : VirtualDubMod build 2542/release
Видео
Идентификатор : 0
Формат : MPEG-4 Visual
Профиль формата : Advanced Simple@L5
Параметр BVOP формата : 1
Параметр QPel формата : Нет
Параметр GMC формата : Без точки перехода
Параметр матрицы формата : Выборочная
Идентификатор кодека : XVID
Идентификатор кодека/Подсказка : XviD
Продолжительность : 1 ч. 12 м.
Битрейт : 1795 Кбит/сек
Ширина : 688 пикселей
Высота : 528 пикселей
Соотношение сторон : 4:3
Частота кадров : 25,000 кадров/сек
Цветовое пространство : YUV
Субдискретизация насыщенности : 4:2:0
Битовая глубина : 8 бит
Тип развёртки : Прогрессивная
Метод сжатия : С потерями
Бит/(Пиксели*Кадры) : 0.198
Размер потока : 931 Мбайт (90%)
Библиотека кодирования : XviD 73
Аудио
Идентификатор : 1
Формат : AC-3
Формат/Информация : Audio Coding 3
Расширение режима : CM (complete main)
Параметр Endianness формата : Big
Идентификатор кодека : 2000
Продолжительность : 1 ч. 12 м.
Вид битрейта : Постоянный
Битрейт : 192 Кбит/сек
Каналы : 2 канала
Расположение каналов : Front: L R
Частота : 48,0 КГц
Битовая глубина : 16 бит
Метод сжатия : С потерями
Размер потока : 99,6 Мбайт (10%)
Выравнивание : Разделение по промежуткам
Продолжительность промежутка : 40 мс. (1,00 видеокадр)
Время предзагрузки промежутка : 500 мс.

Скриншоты:

--
[Профиль] [ЛС]
Показать сообщения:    

Текущее время: Сегодня 22:12

Часовой пояс: GMT



Вы не можете начинать темы
Вы не можете отвечать на сообщения
Вы не можете редактировать свои сообщения
Вы не можете удалять свои сообщения
Вы не можете голосовать в опросах
Вы не можете прикреплять файлы к сообщениям
Вы не можете скачивать файлы