Визит к Минотавру (1 - 5 серия из 5)(Эльдор Уразбаев) [1987, криминальный детектив, SATRip-AVC]

 
Автор Сообщение

sergej644 ®

Пол:

Стаж: 4 года 11 месяцев

Сообщений: 6045

Откуда: Soviet Union



Награды: Нет

Торрент-статистика

Создавать темы 03-Июл-2014 18:25

[Цитировать]

-Визит к Минотавру


Страна: СССР
Жанр: криминальный детектив
Год выпуска: 1987
Продолжительность: 01:14:24 / 01:06:58 / 01:15:07 / 01:08:27 / 01:10:58
Серии: 5 из 5
Режиссёр:Эльдор Уразбаев

В ролях:
Сергей Шакуров, Ростислав Плятт, Анна Каменкова, Владимир Самойлов, Лаймонас Норейка (озвучание - Владимир Сафронов), Валентин Гафт, Александр Филиппенко, Михаил Пуговкин, Лев Борисов, Григорий Лямпе, Саша Порошков, Наталья Аринбасарова, Борис Сморчков, Нина Шацкая, Евгений Супонев, Марина Левтова, Юрий Катин-Ярцев, Валентин Никулин, Саша Делибаш, Валентин Смирнитский, Нина Меньшикова, Юрий Мороз, Андрей Дубовский (озвучание - Сергей Малишевский), Леонид Белозорович, Борис Левинсон, Александр Рахленко (озвучание - Сергей Быстрицкий), Олег Хабалов (озвучание - Владимир Ферапонтов), Манефа Соболевская, Вадим Захарченко...

Следователю прокуратуры Станиславу Тихонову поручают расследовать кражу в квартире прославленного музыканта — скрипача, народного артиста СССР Льва Осиповича Полякова. Из квартиры похищено много ценных вещей, и преступление выглядело бы обычной кражей со взломом, если бы не пропажа скрипки «Санта Мария» - одной из лучших работ Антонио Страдивари, созданной в 1671 году, в период творческого расцвета скрипичного мастера; бесценного, уникального инструмента, без которого Поляков не может выступать. Подозрение в краже скрипки падает на старинного друга-недруга Полякова - Павла Петровича Иконникова...



Качество видео: SATRip-AVC
Формат видео: MKV
Видео: 698@744x574, 25.000 fps, x264 High@L4.1, ~2450 kbps
Аудио: 48 kHz, AC3 Dolby Digital, 2/0 (L,R) ch, ~192 kbps
-

MediaInfo

1 серия

General
Unique ID                                : 186672620518568112279834216498986969793 (0x8C6FD6C66FA40DC3AA21C986E3DF6AC1)
Complete name                            : D:\Torent files\Визит к Минотавру_1987-SATRip-AVC\Визит к Минотавру_1987-SATRip-AVC-1.mkv
Format                                   : Matroska
Format version                           : Version 2
File size                                : 1.26 GiB
Duration                                 : 1h 12mn
Overall bit rate                         : 2 493 Kbps
Encoded date                             : UTC 2014-05-08 18:02:37
Writing application                      : mkvmerge v5.2.0 ('I can't explain') built on Dec 18 2011 18:12:03
Writing library                          : libebml v1.2.3 + libmatroska v1.3.0
Video
ID                                       : 1
Format                                   : AVC
Format/Info                              : Advanced Video Codec
Format profile                           : High@L4.1
Format settings, CABAC                   : Yes
Format settings, ReFrames                : 16 frames
Codec ID                                 : V_MPEG4/ISO/AVC
Duration                                 : 1h 12mn
Bit rate                                 : 2 252 Kbps
Width                                    : 698 pixels
Height                                   : 574 pixels
Display aspect ratio                     : 1.296
Original display aspect ratio            : 1.297
Frame rate mode                          : Constant
Frame rate                               : 25.000 fps
Color space                              : YUV
Chroma subsampling                       : 4:2:0
Bit depth                                : 8 bits
Scan type                                : Progressive
Bits/(Pixel*Frame)                       : 0.225
Stream size                              : 1.14 GiB (90%)
Writing library                          : x264 core 130 r2273 b3065e6
Encoding settings                        : cabac=1 / ref=16 / deblock=1:-2:-2 / analyse=0x3:0x133 / me=umh / subme=11 / psy=1 / psy_rd=1.05:0.20 / mixed_ref=1 / me_range=24 / chroma_me=1 / trellis=2 / 8x8dct=1 / cqm=0 / deadzone=21,11 / fast_pskip=1 / chroma_qp_offset=-3 / threads=12 / lookahead_threads=3 / sliced_threads=0 / nr=0 / decimate=1 / interlaced=0 / bluray_compat=0 / constrained_intra=0 / bframes=10 / b_pyramid=2 / b_adapt=2 / b_bias=0 / direct=1 / weightb=1 / open_gop=0 / weightp=2 / keyint=250 / keyint_min=25 / scenecut=40 / intra_refresh=0 / rc=crf / mbtree=0 / crf=18.5 / qcomp=0.65 / qpmin=0 / qpmax=55 / qpstep=4 / ip_ratio=1.30 / pb_ratio=1.20 / aq=1:1.00
Language                                 : English
Default                                  : Yes
Forced                                   : No
Color primaries                          : BT.601 PAL
Transfer characteristics                 : BT.470 System B, BT.470 System G
Matrix coefficients                      : BT.601
Audio
ID                                       : 2
Format                                   : AC-3
Format/Info                              : Audio Coding 3
Mode extension                           : CM (complete main)
Format settings, Endianness              : Big
Codec ID                                 : A_AC3
Duration                                 : 1h 12mn
Bit rate mode                            : Constant
Bit rate                                 : 192 Kbps
Channel count                            : 2 channels
Channel positions                        : Front: L R
Sampling rate                            : 48.0 KHz
Bit depth                                : 16 bits
Compression mode                         : Lossy
Delay relative to video                  : 30ms
Stream size                              : 99.6 MiB (8%)
Language                                 : Russian
Default                                  : Yes
Forced                                   : No

2 серия

General
Unique ID                                : 215184967920811794641813200634996247612 (0xA1E31E0957ECB5D68F12465C6CB6CC3C)
Complete name                            : D:\Torent files\Визит к Минотавру_1987-SATRip-AVC\Визит к Минотавру_1987-SATRip-AVC-2.mkv
Format                                   : Matroska
Format version                           : Version 2
File size                                : 1.22 GiB
Duration                                 : 1h 4mn
Overall bit rate                         : 2 695 Kbps
Encoded date                             : UTC 2014-05-10 16:49:05
Writing application                      : mkvmerge v5.2.0 ('I can't explain') built on Dec 18 2011 18:12:03
Writing library                          : libebml v1.2.3 + libmatroska v1.3.0
Video
ID                                       : 1
Format                                   : AVC
Format/Info                              : Advanced Video Codec
Format profile                           : High@L4.1
Format settings, CABAC                   : Yes
Format settings, ReFrames                : 16 frames
Codec ID                                 : V_MPEG4/ISO/AVC
Duration                                 : 1h 4mn
Bit rate                                 : 2 450 Kbps
Width                                    : 698 pixels
Height                                   : 574 pixels
Display aspect ratio                     : 1.296
Original display aspect ratio            : 1.297
Frame rate mode                          : Constant
Frame rate                               : 25.000 fps
Color space                              : YUV
Chroma subsampling                       : 4:2:0
Bit depth                                : 8 bits
Scan type                                : Progressive
Bits/(Pixel*Frame)                       : 0.245
Stream size                              : 1.11 GiB (91%)
Writing library                          : x264 core 130 r2273 b3065e6
Encoding settings                        : cabac=1 / ref=16 / deblock=1:-2:-2 / analyse=0x3:0x133 / me=umh / subme=11 / psy=1 / psy_rd=1.05:0.20 / mixed_ref=1 / me_range=24 / chroma_me=1 / trellis=2 / 8x8dct=1 / cqm=0 / deadzone=21,11 / fast_pskip=1 / chroma_qp_offset=-3 / threads=12 / lookahead_threads=3 / sliced_threads=0 / nr=0 / decimate=1 / interlaced=0 / bluray_compat=0 / constrained_intra=0 / bframes=10 / b_pyramid=2 / b_adapt=2 / b_bias=0 / direct=1 / weightb=1 / open_gop=0 / weightp=2 / keyint=250 / keyint_min=25 / scenecut=40 / intra_refresh=0 / rc=crf / mbtree=0 / crf=18.9 / qcomp=0.65 / qpmin=0 / qpmax=55 / qpstep=4 / ip_ratio=1.30 / pb_ratio=1.20 / aq=1:1.00
Language                                 : English
Default                                  : Yes
Forced                                   : No
Color primaries                          : BT.601 PAL
Transfer characteristics                 : BT.470 System B, BT.470 System G
Matrix coefficients                      : BT.601
Audio
ID                                       : 2
Format                                   : AC-3
Format/Info                              : Audio Coding 3
Mode extension                           : CM (complete main)
Format settings, Endianness              : Big
Codec ID                                 : A_AC3
Duration                                 : 1h 4mn
Bit rate mode                            : Constant
Bit rate                                 : 192 Kbps
Channel count                            : 2 channels
Channel positions                        : Front: L R
Sampling rate                            : 48.0 KHz
Bit depth                                : 16 bits
Compression mode                         : Lossy
Delay relative to video                  : 22ms
Stream size                              : 88.9 MiB (7%)
Language                                 : Russian
Default                                  : Yes
Forced                                   : No

3 серия

General
Unique ID                                : 204386119291163256150220670050923217204 (0x99C355B142189BD6813FABA1AD708134)
Complete name                            : D:\Torent files\Визит к Минотавру_1987-SATRip-AVC\Визит к Минотавру_1987-SATRip-AVC-3.mkv
Format                                   : Matroska
Format version                           : Version 2
File size                                : 1.37 GiB
Duration                                 : 1h 12mn
Overall bit rate                         : 2 693 Kbps
Encoded date                             : UTC 2014-05-10 13:19:17
Writing application                      : mkvmerge v5.2.0 ('I can't explain') built on Dec 18 2011 18:12:03
Writing library                          : libebml v1.2.3 + libmatroska v1.3.0
Video
ID                                       : 1
Format                                   : AVC
Format/Info                              : Advanced Video Codec
Format profile                           : High@L4.1
Format settings, CABAC                   : Yes
Format settings, ReFrames                : 16 frames
Codec ID                                 : V_MPEG4/ISO/AVC
Duration                                 : 1h 12mn
Bit rate                                 : 2 448 Kbps
Width                                    : 698 pixels
Height                                   : 574 pixels
Display aspect ratio                     : 1.296
Original display aspect ratio            : 1.297
Frame rate mode                          : Constant
Frame rate                               : 25.000 fps
Color space                              : YUV
Chroma subsampling                       : 4:2:0
Bit depth                                : 8 bits
Scan type                                : Progressive
Bits/(Pixel*Frame)                       : 0.244
Stream size                              : 1.25 GiB (91%)
Writing library                          : x264 core 130 r2273 b3065e6
Encoding settings                        : cabac=1 / ref=16 / deblock=1:-2:-2 / analyse=0x3:0x133 / me=umh / subme=11 / psy=1 / psy_rd=1.05:0.20 / mixed_ref=1 / me_range=24 / chroma_me=1 / trellis=2 / 8x8dct=1 / cqm=0 / deadzone=21,11 / fast_pskip=1 / chroma_qp_offset=-3 / threads=12 / lookahead_threads=3 / sliced_threads=0 / nr=0 / decimate=1 / interlaced=0 / bluray_compat=0 / constrained_intra=0 / bframes=10 / b_pyramid=2 / b_adapt=2 / b_bias=0 / direct=1 / weightb=1 / open_gop=0 / weightp=2 / keyint=250 / keyint_min=25 / scenecut=40 / intra_refresh=0 / rc=crf / mbtree=0 / crf=18.5 / qcomp=0.65 / qpmin=0 / qpmax=55 / qpstep=4 / ip_ratio=1.30 / pb_ratio=1.20 / aq=1:1.00
Language                                 : English
Default                                  : Yes
Forced                                   : No
Color primaries                          : BT.601 PAL
Transfer characteristics                 : BT.470 System B, BT.470 System G
Matrix coefficients                      : BT.601
Audio
ID                                       : 2
Format                                   : AC-3
Format/Info                              : Audio Coding 3
Mode extension                           : CM (complete main)
Format settings, Endianness              : Big
Codec ID                                 : A_AC3
Duration                                 : 1h 12mn
Bit rate mode                            : Constant
Bit rate                                 : 192 Kbps
Channel count                            : 2 channels
Channel positions                        : Front: L R
Sampling rate                            : 48.0 KHz
Bit depth                                : 16 bits
Compression mode                         : Lossy
Delay relative to video                  : 30ms
Stream size                              : 100 MiB (7%)
Language                                 : Russian
Default                                  : Yes
Forced                                   : No

4 серия

General
Unique ID                                : 191291837415004550383773609217602909741 (0x8FE977C064B9A45C84F83603A88C762D)
Complete name                            : D:\Torent files\Визит к Минотавру_1987-SATRip-AVC\Визит к Минотавру_1987-SATRip-AVC-4.mkv
Format                                   : Matroska
Format version                           : Version 2
File size                                : 1.26 GiB
Duration                                 : 1h 5mn
Overall bit rate                         : 2 724 Kbps
Encoded date                             : UTC 2014-05-10 09:23:21
Writing application                      : mkvmerge v5.2.0 ('I can't explain') built on Dec 18 2011 18:12:03
Writing library                          : libebml v1.2.3 + libmatroska v1.3.0
Video
ID                                       : 1
Format                                   : AVC
Format/Info                              : Advanced Video Codec
Format profile                           : High@L4.1
Format settings, CABAC                   : Yes
Format settings, ReFrames                : 16 frames
Codec ID                                 : V_MPEG4/ISO/AVC
Duration                                 : 1h 5mn
Bit rate                                 : 2 478 Kbps
Width                                    : 698 pixels
Height                                   : 574 pixels
Display aspect ratio                     : 1.296
Original display aspect ratio            : 1.297
Frame rate mode                          : Constant
Frame rate                               : 25.000 fps
Color space                              : YUV
Chroma subsampling                       : 4:2:0
Bit depth                                : 8 bits
Scan type                                : Progressive
Bits/(Pixel*Frame)                       : 0.247
Stream size                              : 1.14 GiB (91%)
Writing library                          : x264 core 130 r2273 b3065e6
Encoding settings                        : cabac=1 / ref=16 / deblock=1:-2:-2 / analyse=0x3:0x133 / me=umh / subme=11 / psy=1 / psy_rd=1.05:0.20 / mixed_ref=1 / me_range=24 / chroma_me=1 / trellis=2 / 8x8dct=1 / cqm=0 / deadzone=21,11 / fast_pskip=1 / chroma_qp_offset=-3 / threads=12 / lookahead_threads=3 / sliced_threads=0 / nr=0 / decimate=1 / interlaced=0 / bluray_compat=0 / constrained_intra=0 / bframes=10 / b_pyramid=2 / b_adapt=2 / b_bias=0 / direct=1 / weightb=1 / open_gop=0 / weightp=2 / keyint=250 / keyint_min=25 / scenecut=40 / intra_refresh=0 / rc=crf / mbtree=0 / crf=18.6 / qcomp=0.65 / qpmin=0 / qpmax=55 / qpstep=4 / ip_ratio=1.30 / pb_ratio=1.20 / aq=1:1.00
Language                                 : English
Default                                  : Yes
Forced                                   : No
Color primaries                          : BT.601 PAL
Transfer characteristics                 : BT.470 System B, BT.470 System G
Matrix coefficients                      : BT.601
Audio
ID                                       : 2
Format                                   : AC-3
Format/Info                              : Audio Coding 3
Mode extension                           : CM (complete main)
Format settings, Endianness              : Big
Codec ID                                 : A_AC3
Duration                                 : 1h 5mn
Bit rate mode                            : Constant
Bit rate                                 : 192 Kbps
Channel count                            : 2 channels
Channel positions                        : Front: L R
Sampling rate                            : 48.0 KHz
Bit depth                                : 16 bits
Compression mode                         : Lossy
Delay relative to video                  : 14ms
Stream size                              : 90.6 MiB (7%)
Language                                 : Russian
Default                                  : Yes
Forced                                   : No

5 серия

General
Unique ID                                : 250761325378347956533954246470821991390 (0xBCA6DFE21E3EF26BBB7F9DD7ED37D3DE)
Complete name                            : D:\Torent files\Визит к Минотавру_1987-SATRip-AVC\Визит к Минотавру_1987-SATRip-AVC-5.mkv
Format                                   : Matroska
Format version                           : Version 2
File size                                : 1.29 GiB
Duration                                 : 1h 8mn
Overall bit rate                         : 2 678 Kbps
Encoded date                             : UTC 2014-05-09 13:41:52
Writing application                      : mkvmerge v5.2.0 ('I can't explain') built on Dec 18 2011 18:12:03
Writing library                          : libebml v1.2.3 + libmatroska v1.3.0
Video
ID                                       : 1
Format                                   : AVC
Format/Info                              : Advanced Video Codec
Format profile                           : High@L4.1
Format settings, CABAC                   : Yes
Format settings, ReFrames                : 16 frames
Codec ID                                 : V_MPEG4/ISO/AVC
Duration                                 : 1h 8mn
Bit rate                                 : 2 432 Kbps
Width                                    : 698 pixels
Height                                   : 574 pixels
Display aspect ratio                     : 1.296
Original display aspect ratio            : 1.297
Frame rate mode                          : Constant
Frame rate                               : 25.000 fps
Color space                              : YUV
Chroma subsampling                       : 4:2:0
Bit depth                                : 8 bits
Scan type                                : Progressive
Bits/(Pixel*Frame)                       : 0.243
Stream size                              : 1.17 GiB (91%)
Writing library                          : x264 core 142 r2389 956c8d8
Encoding settings                        : cabac=1 / ref=16 / deblock=1:-2:-2 / analyse=0x3:0x133 / me=umh / subme=11 / psy=1 / psy_rd=1.05:0.20 / mixed_ref=1 / me_range=24 / chroma_me=1 / trellis=2 / 8x8dct=1 / cqm=0 / deadzone=21,11 / fast_pskip=1 / chroma_qp_offset=-3 / threads=3 / lookahead_threads=1 / sliced_threads=0 / nr=0 / decimate=1 / interlaced=0 / bluray_compat=0 / constrained_intra=0 / bframes=10 / b_pyramid=2 / b_adapt=2 / b_bias=0 / direct=1 / weightb=1 / open_gop=0 / weightp=2 / keyint=250 / keyint_min=25 / scenecut=40 / intra_refresh=0 / rc=crf / mbtree=0 / crf=18.5 / qcomp=0.65 / qpmin=0 / qpmax=39 / qpstep=4 / ip_ratio=1.30 / pb_ratio=1.20 / aq=1:1.00
Language                                 : English
Default                                  : Yes
Forced                                   : No
Color primaries                          : BT.601 PAL
Transfer characteristics                 : BT.470 System B, BT.470 System G
Matrix coefficients                      : BT.601
Audio
ID                                       : 2
Format                                   : AC-3
Format/Info                              : Audio Coding 3
Mode extension                           : CM (complete main)
Format settings, Endianness              : Big
Codec ID                                 : A_AC3
Duration                                 : 1h 8mn
Bit rate mode                            : Constant
Bit rate                                 : 192 Kbps
Channel count                            : 2 channels
Channel positions                        : Front: L R
Sampling rate                            : 48.0 KHz
Bit depth                                : 16 bits
Compression mode                         : Lossy
Delay relative to video                  : 22ms
Stream size                              : 94.6 MiB (7%)
Language                                 : Russian
Default                                  : Yes
Forced                                   : No
-
[Профиль] [ЛС]

Создавать темы 06-Авг-2015 22:06 (спустя 1 год 1 месяц)

Топик был перенесен из форума Кино СССР в форум Кино СССР
sergej644
 
Показать сообщения:    

Текущее время: Сегодня 18:22

Часовой пояс: GMT



Вы не можете начинать темы
Вы не можете отвечать на сообщения
Вы не можете редактировать свои сообщения
Вы не можете удалять свои сообщения
Вы не можете голосовать в опросах
Вы не можете прикреплять файлы к сообщениям
Вы не можете скачивать файлы