Видок / Vidocq (2001) BDRip 1080p от FREEISLAND

 
Автор Сообщение

Russian Mafia ®

Пол:

Стаж: 1 год 8 месяцев

Сообщений: 4255



Награды: 10 (Подробнее)

Mega Seeder 2 (Количество: 1) Top Releaser 2 (Количество: 1) Top Releaser 5 (Количество: 1)
Торрент-статистика

Создавать темы 30-Авг-2016 17:58

[Цитировать]

ВидокVidocq«Пришло время узнать правду...» Год выпуска: 2001
Страна: Франция
Слоган: «Пришло время узнать правду...»
Жанр: фантастика, фэнтези, боевик, триллер, криминал, детектив
Продолжительность: 01:37:38
Перевод: Профессиональный дублированный
Режиссер: Питоф / Pitof В ролях: Жерар Депардье (Vidocq), Гийом Кане (Etienne Boisset), Инес Састре (Préah), Андре Дюссолье (Lautrennes), Эдит Скоб (Sylvia), Мусса Мааскри (Nimier), Жан-Пьер Гос (Tauzet), Изабель Рено (Marine Lafitte), Жан-Поль Дюбуа (Belmont), Андре Пенверн (Veraldi), Жиль Арбона (Lafitte), Жан-Марк Тибо (Leviner)
Описание: Париж ХIХ века охвачен паникой. В его «чреве» завелся серийный убийца, которого может вычислить только гениальный сыщик Видок. Реальный исторический персонаж, не знающий удержу - особенно в исполнении громоподобного Депардье - ни в своих перевоплощениях, ни в дьявольской интуиции.
Он мчится по следу загадочного Алхимика. Волшебные декорации города, который разрывают вспышки молний, потайные двери, одуряющие наркотическим безумием, в хитроумную лабораторию, где кружится голова.


MPAA: R - Лицам до 17 лет обязательно присутствие взрослого
Качество: BDRip (исходник Blu-ray Remux )
Контейнер: MKV
Видео: AVC, 1920x1044 (16:9), 11014 kbps, 24 fps, 0,229 bpp
Аудио: русский /; AC3 /; 5.1 /; 48 kHz /; 640 kbps /; 16 bit
Субтитры №1: русские
Субтитры №2: английские

Media Info

General
Unique ID : 254185453750710628658730612497274560819 (0xBF3A56723C9E1A8D92873475D60AE133)
Complete name : E:Vidocq(2001)1080p.F-HD.mkv
Format : Matroska
Format version : Version 4 / Version 2
File size : 7.94 GiB
Duration : 1h 37mn
Overall bit rate : 11.6 Mbps
Encoded date : UTC 2013-02-15 04:19:56
Writing application : mkvmerge v6.0.0 ('Coming Up For Air') built on Jan 20 2013 09:52:00
Writing library : libebml v1.3.0 + libmatroska v1.4.0
Video
ID : 1
Format : AVC
Format/Info : Advanced Video Codec
Format profile : High@L4.1
Format settings, CABAC : Yes
Format settings, ReFrames : 4 frames
Codec ID : V_MPEG4/ISO/AVC
Duration : 1h 37mn
Bit rate : 11.0 Mbps
Width : 1 920 pixels
Height : 1 044 pixels
Display aspect ratio : 16:9
Frame rate : 24.000 fps
Color space : YUV
Chroma subsampling : 4:2:0
Bit depth : 8 bits
Scan type : Progressive
Bits/(Pixel*Frame) : 0.229
Stream size : 7.34 GiB (93%)
Writing library : x264 core 129 r2230 1cffe9f
Encoding settings : cabac=1 / ref=4 / deblock=1:-1:-1 / analyse=0x3:0x113 / me=umh / subme=10 / psy=1 / psy_rd=1.00:0.05 / mixed_ref=1 / me_range=42 / chroma_me=1 / trellis=2 / 8x8dct=1 / cqm=0 / deadzone=21,11 / fast_pskip=0 / chroma_qp_offset=-3 / threads=6 / lookahead_threads=1 / sliced_threads=0 / nr=0 / decimate=1 / interlaced=0 / bluray_compat=0 / constrained_intra=0 / bframes=8 / b_pyramid=2 / b_adapt=2 / b_bias=0 / direct=3 / weightb=1 / open_gop=0 / weightp=2 / keyint=240 / keyint_min=24 / scenecut=40 / intra_refresh=0 / rc=2pass / mbtree=0 / bitrate=11014 / ratetol=1.0 / qcomp=0.60 / qpmin=0 / qpmax=69 / qpstep=4 / cplxblur=20.0 / qblur=0.5 / ip_ratio=1.40 / pb_ratio=1.30 / aq=2:0.80
Language : English
Default : Yes
Forced : No
Color primaries : BT.709-5, BT.1361, IEC 61966-2-4, SMPTE RP177
Transfer characteristics : BT.709-5, BT.1361
Matrix coefficients : BT.709-5, BT.1361, IEC 61966-2-4 709, SMPTE RP177
Audio
ID : 2
Format : AC-3
Format/Info : Audio Coding 3
Mode extension : CM (complete main)
Codec ID : A_AC3
Duration : 1h 37mn
Bit rate mode : Constant
Bit rate : 640 Kbps
Channel(s) : 6 channels
Channel positions : Front: L C R, Side: L R, LFE
Sampling rate : 48.0 KHz
Bit depth : 16 bits
Compression mode : Lossy
Stream size : 447 MiB (5%)
Language : Russian
Default : Yes
Forced : No
Text #1
ID : 3
Format : UTF-8
Codec ID : S_TEXT/UTF8
Codec ID/Info : UTF-8 Plain Text
Language : Russian
Default : No
Forced : No
Text #2
ID : 4
Format : UTF-8
Codec ID : S_TEXT/UTF8
Codec ID/Info : UTF-8 Plain Text
Language : English
Default : No
Forced : No
Меню
00:00:00.000 : en:Chapter 01
00:05:13.000 : en:Chapter 02
00:06:45.332 : en:Chapter 03
00:10:54.290 : en:Chapter 04
00:14:21.833 : en:Chapter 05
00:19:24.666 : en:Chapter 06
00:24:00.000 : en:Chapter 07
00:31:17.583 : en:Chapter 08
00:36:58.750 : en:Chapter 09
00:41:43.375 : en:Chapter 10
00:47:14.333 : en:Chapter 11
00:54:20.041 : en:Chapter 12
01:02:17.000 : en:Chapter 13
01:12:00.541 : en:Chapter 14
01:20:25.582 : en:Chapter 15
01:27:33.875 : en:Chapter 16
01:32:11.041 : en:Chapter 17
01:33:55.207 : en:Chapter 18
01:37:30.000 : en:Chapter 19

Знаете ли Вы, что...

Фильм крайне вольно использует факты жизни реального сыщика Эжена-Франсуа Видока (1775-1857), который был вором, а после превратился в знаменитейшего частного детектива, своего рода французский аналог Ната Пинкертона.
«Видок» - первый в истории фильм, целиком снятый на цифровую видеокамеру. Вторым к финишу пришел Джордж Лукас со «Звездными войнами. Эпизод 2».
Видок написал ряд книг о собственных приключениях. И в ХХ веке стал одной из любимых фигур французского масскульта, героем многочисленных романов, фильмов и пьес.
Первоначально Видока должен был играть Даниэль Оттой. Однако в связи с решением снимать фильм новыми цифровыми камерами производство было отложено, а это шло вразрез с планами Оттоя, и он покинул проект.
Первоначальный проект сценария был написан сценаристом и режиссером Давидом Факрикианом и сценаристом и актером Александром Преслем. В этом варианте Видок бросал вызов негодяям от политики, затеявшим подлую политическую интригу. Действие фильма должно было продолжаться три дня, а в финале действия Видока приводили к июльской революции 1830 года, с показом тысячных толп французских граждан, сражающихся с полицейскими силами. Однако такой вариант сюжета был отвергнут продюсерами как слишком радикальный и подрывной. В результате от первоначального проекта в фильме сохранились только время и место действия, имена главных героев и концепция художественного оформления.
После схватки с Алхимиком Видок падает в колодец - и впоследствии оказывается спасенным точно таким же образом, каким спасся Люк Скайуокер после схватки с Дартом Вейдером в фильме «Звездные войны. Эпизод V: Империя наносит ответный удар» (1980).

Скриншоты




[Профиль] [ЛС]
Кто просматривает тему:

Показать сообщения:    

Текущее время: Сегодня 16:21

Часовой пояс: GMT



Вы не можете начинать темы
Вы не можете отвечать на сообщения
Вы не можете редактировать свои сообщения
Вы не можете удалять свои сообщения
Вы не можете голосовать в опросах
Вы не можете прикреплять файлы к сообщениям
Вы не можете скачивать файлы