Видения – Из жизни Хильдегарды фон Бинген / Vision - Aus dem Leben der Hildegard von Bingen (Маргарете фон Тротта / Margarethe von Trotta) [2009, Германия, Франция, Биография, Драма, DVDRip] VO (Pashaup)

 
Автор Сообщение

painkiller ®

Стаж: 2 года 3 месяца

Сообщений: 582



Награды: Нет

Торрент-статистика

Создавать темы 17-Авг-2014 10:43

[Цитировать]

Видения – Из жизни Хильдегарды фон Бинген / Vision - Aus dem Leben der Hildegard von Bingen
Страна: Германия, Франция
Жанр: Биография, Драма
Год выпуска: 2009
Продолжительность: 01:46:05
Перевод: Одноголосый закадровый [Pashaup] по прекрасным субтитрам [Романа Володина]
Cубтитры: нет
Оригинальная аудиодорожка: нет
Режиссер: Маргарете фон Тротта / Margarethe von Trotta
В ролях: Барбара Зукова, Хайно Ферх, Ханна Херцшпрунг, Лена Штольце, Геральд Александр Хельд, Сунньи Меллес, Паула Каленберг, Девид Штрисов, Аннемари Дюрингер, Марайле Блендл
Описание: История жизни немецкой монахини Хильдегарды фон Бинген, настоятельницы монастыря в долине Рейна. Она обладала множеством различных талантов: была автором мистических трудов, религиозных песнопений и музыки к ним, а также трудов по естествознанию и медицине. Монахи и монахини по-разному воспринимали её возможности: например, Ютта не могла совладать с чувством зависти к успеху Хильдегарды, а молодой Рихардис, напротив, преклонялся перед Хильдегардой, считая ее образцом для подражания и женщиной, подходящей на роль матери.
Доп. информация:
Это интересно что... Этому фильму посвятила один из своих альбомов шведская фолк-группа Garmarna.
Релиз-группа:
Сэмпл: http://sendfile.su/936693
Качество видео: DVDRip
Формат видео: AVI
Видео: DivX, 720x306, 25 fps, 1513 kbps, 0.275 bit/pixel
Аудио: МР3, 48 kHz, 2 ch, 256 kbps

MediaInfo

Формат : AVI
Формат/Информация : Audio Video Interleave
Размер файла : 1,32 Гбайт
Продолжительность : 1 ч. 46 м.
Общий поток : 1779 Кбит/сек
Название фильма : VISION_AUS_DEM_LEBEN_DER_HILDEGA.Title1.DVDRip
Программа кодирования : VirtualDubMod 1.5.10.2 (build 2540/release)
Библиотека кодирования : VirtualDubMod build 2540/release
Формат оригинала/Имя : VISION_AUS_DEM_LEBEN_DER_HILDEGA
Видео
Идентификатор : 0
Формат : MPEG-4 Visual
Профиль формата : Simple@L3
Параметр BVOP формата : Нет
Параметр QPel формата : Нет
Параметр GMC формата : Без точки перехода
Параметр матрицы формата : Default (H.263)
Идентификатор кодека : DX50
Идентификатор кодека/Подсказка : DivX 5
Продолжительность : 1 ч. 46 м.
Битрейт : 1513 Кбит/сек
Ширина : 720 пикселей
Высота : 306 пикселей
Соотношение сторон : 2,35:1
Частота кадров : 25,000 кадров/сек
Цветовое пространство : YUV
Субдискретизация насыщенности : 4:2:0
Битовая глубина : 8 бит
Тип развёртки : Прогрессивная
Метод сжатия : С потерями
Бит/(Пиксели*Кадры) : 0.275
Размер потока : 1,12 Гбайт (85%)
Библиотека кодирования : XviD 1.2.1 (UTC 2008-12-04)
Аудио
Идентификатор : 1
Формат : MPEG Audio
Версия формата : Version 1
Профиль формата : Layer 3
Режим : Joint stereo
Идентификатор кодека : 55
Идентификатор кодека/Подсказка : MP3
Продолжительность : 1 ч. 46 м.
Вид битрейта : Постоянный
Битрейт : 256 Кбит/сек
Каналы : 2 канала
Частота : 48,0 КГц
Метод сжатия : С потерями
Размер потока : 195 Мбайт (14%)
Выравнивание : Соединение по промежуткам
Продолжительность промежутка : 40 мс. (1,00 видеокадр)
Время предзагрузки промежутка : 504 мс.

Скриншот c названием фильма

Скриншоты






[Профиль] [ЛС]

Создавать темы 06-Авг-2015 23:09 (спустя 11 месяцев 20 дней)

Топик был перенесен из форума Фильмы до 2014 года в форум Фильмы до 2012 года
sergej644
 

Создавать темы 12-Июн-2016 08:48 (спустя 1 год 9 месяцев)

Топик был перенесен из форума Фильмы 2011 года в форум Фильмы 2009 года
Russian Mafia
 
Показать сообщения:    

Текущее время: Сегодня 20:34

Часовой пояс: GMT



Вы не можете начинать темы
Вы не можете отвечать на сообщения
Вы не можете редактировать свои сообщения
Вы не можете удалять свои сообщения
Вы не можете голосовать в опросах
Вы не можете прикреплять файлы к сообщениям
Вы не можете скачивать файлы