Вивисекция. Как устроены насекомые / BBC. Insect Dissection: How Insects Work (Нэйтан Бадд / Nathan Budd) [2013, документальный, HDTVRip 720p]

 
Автор Сообщение

TorrentFilm ®

Пол:

Стаж: 2 года

Сообщений: 7741



Награды: Нет

Торрент-статистика

Создавать темы 26-Дек-2014 02:01

[Цитировать]

Вивисекция. Как устроены насекомые / Insect Dissection: How Insects Work Год выпуска: 2013
Страна: Великобритания
Студия: BBC
Жанр: документальный
Продолжительность: 00:49:37
Перевод: Профессиональный одноголосый (закадровый) - Видеофильм ТВ
Субтитры: нет
Режиссер: Нэйтан Бадд / Nathan Budd
Описание: Насекомые. Они жужжат, кусаются и досаждают нам. На каждого из нас приходится их 200 миллионов. Они завоевали практически все уголки нашей планеты. В чем же секрет их успеха? Брендон Данфи и Джеймс Логан - ученые энтомологи - считают, что для того, чтобы понять насекомых, их нужно рассмотреть изнутри. В своей анатомической лаборатории они разбирают насекомых на маленькие кусочки, чтобы изучить этот потаенный мир. Их органы столь причудливы, что кажется будто они принадлежат инопланетянину. Вивисекция насекомых - занятие временами сложное, а временами и страшное.
Доп. информация: Раздача от skorpionN.
Тип релиза: HDTVRip 720p
Контейнер: MKV
Видео: MPEG-4 AVC, 1280x720 (16:9), 25.000 fps, 3616 Kbps
Аудио: Russian AC3, 2 ch, 48KHz, 192 Kbps
Формат субтитров: softsub (SRT)
Другие фильмы BBC в HD

MediaInfo

General
Unique ID : 202097756954977064561067212237587138506 (0x980A9CB7EA0AD65B98422D610514C7CA)
Complete name : E:\Me\BBC_Insect Dissection_How Insects Work.mkv
Format : Matroska
Format version : Version 4 / Version 2
File size : 1.35 GiB
Duration : 49mn 37s
Overall bit rate mode : Constant
Overall bit rate : 3 885 Kbps
Encoded date : UTC 2014-11-29 13:18:45
Writing application : mkvmerge v7.3.0 ('Nouages') 64bit built on Oct 22 2014 18:53:34
Writing library : libebml v1.3.0 + libmatroska v1.4.1
DURATION : 00:49:37.600000000
NUMBER_OF_FRAMES : 74440
NUMBER_OF_BYTES : 1374014562
_STATISTICS_WRITING_APP : mkvmerge v7.3.0 ('Nouages') 64bit built on Oct 22 2014 18:53:34
_STATISTICS_WRITING_DATE_UTC : 2014-11-29 13:18:45
_STATISTICS_TAGS : BPS DURATION NUMBER_OF_FRAMES NUMBER_OF_BYTES
Video
ID : 1
Format : AVC
Format/Info : Advanced Video Codec
Format profile : High@L3.1
Format settings, CABAC : Yes
Format settings, ReFrames : 3 frames
Codec ID : V_MPEG4/ISO/AVC
Duration : 49mn 37s
Bit rate mode : Constant
Bit rate : 3 616 Kbps
Nominal bit rate : 4 000 Kbps / 4 000 Kbps
Width : 1 280 pixels
Height : 720 pixels
Display aspect ratio : 16:9
Frame rate mode : Constant
Frame rate : 25.000 fps
Standard : NTSC
Color space : YUV
Chroma subsampling : 4:2:0
Bit depth : 8 bits
Scan type : Progressive
Bits/(Pixel*Frame) : 0.157
Stream size : 1.25 GiB (93%)
Writing library : x264 core 114
Encoding settings : cabac=1 / ref=3 / deblock=1:0:0 / analyse=0x3:0x113 / me=hex / subme=7 / psy=1 / psy_rd=1.00:0.00 / mixed_ref=1 / me_range=16 / chroma_me=1 / trellis=1 / 8x8dct=1 / cqm=2 / deadzone=21,11 / fast_pskip=1 / chroma_qp_offset=-2 / threads=6 / sliced_threads=0 / slices=1 / nr=0 / decimate=1 / interlaced=0 / constrained_intra=0 / bframes=3 / b_pyramid=0 / b_adapt=1 / b_bias=0 / direct=1 / weightb=1 / open_gop=0 / weightp=2 / keyint=250 / keyint_min=25 / scenecut=40 / intra_refresh=0 / rc_lookahead=40 / rc=cbr / mbtree=1 / bitrate=4000 / ratetol=1.0 / qcomp=0.60 / qpmin=3 / qpmax=69 / qpstep=4 / vbv_maxrate=4000 / vbv_bufsize=3997 / nal_hrd=cbr / ip_ratio=1.40 / aq=1:1.00
Default : Yes
Forced : No
Color primaries : BT.709
Transfer characteristics : BT.709
Matrix coefficients : BT.709
Audio
ID : 2
Format : AC-3
Format/Info : Audio Coding 3
Mode extension : CM (complete main)
Format settings, Endianness : Big
Codec ID : A_AC3
Duration : 49mn 37s
Bit rate mode : Constant
Bit rate : 192 Kbps
Channel(s) : 2 channels
Channel positions : Front: L R
Sampling rate : 48.0 KHz
Bit depth : 16 bits
Compression mode : Lossy
Stream size : 68.2 MiB (5%)
Default : Yes
Forced : No

Скриншоты

[Профиль] [ЛС]
Показать сообщения:    

Текущее время: Сегодня 05:17

Часовой пояс: GMT



Вы не можете начинать темы
Вы не можете отвечать на сообщения
Вы не можете редактировать свои сообщения
Вы не можете удалять свои сообщения
Вы не можете голосовать в опросах
Вы не можете прикреплять файлы к сообщениям
Вы не можете скачивать файлы